<?xml version="1.0" standalone="no"?> 
<!DOCTYPE svg PUBLIC "-//W3C//DTD SVG 1.1//EN" "http://www.w3.org/Graphics/SVG/1.1/DTD/svg11.dtd" >
<svg xmlns="http://www.w3.org/2000/svg">
<defs>
  <font id="fontawesome" horiz-adv-x="640">
    <font-face font-family="Font Awesome 5 Light"
      units-per-em="512" ascent="512"
      descent="0"
      font-weight="300"
      font-style="Light" />
    <missing-glyph horiz-adv-x="0" />
    <glyph glyph-name="address-book"
      unicode="&#xF2B9;"
      horiz-adv-x="448" d=" M298.7 259.78C312.02 276.26 320 297.2200000000001 320 320C320 372.93 276.93 416 224 416S128 372.93 128 320C128 297.2200000000001 135.98 276.26 149.3 259.78C134.46 254.55 121.69 245.2 112.13 232.54C101.58 218.55 96 201.89 96 184.36V120C96 89.12 121.12 64 152 64H296C326.88 64 352 89.12 352 120V184.36C352 201.89 346.42 218.55 335.87 232.54C326.31 245.2000000000001 313.54 254.55 298.7 259.7800000000001zM224 384C259.35 384 288 355.35 288 320C288 284.535 259.238 256 224 256C188.773 256 160 284.524 160 320C160 355.35 188.65 384 224 384zM320 120C320 106.75 309.25 96 296 96H152C138.75 96 128 106.75 128 120V184.36C128 205.8 142.21 224.63 162.81 230.52L179.1 235.17C192.51 228.04 207.79 224 224 224S255.49 228.04 268.9 235.17L285.19 230.5200000000001C305.79 224.6300000000001 320 205.8000000000001 320 184.36V120zM436 352C442.627 352 448 357.373 448 364V404C448 410.627 442.627 416 436 416H416V464C416 490.51 394.51 512 368 512H80C53.49 512 32 490.51 32 464V48C32 21.49 53.49 0 80 0H368C394.51 0 416 21.49 416 48V96H436C442.627 96 448 101.373 448 108V148C448 154.627 442.627 160 436 160H416V224H436C442.627 224 448 229.373 448 236V276C448 282.627 442.627 288 436 288H416V352H436zM384 48C384 39.178 376.822 32 368 32H80C71.178 32 64 39.178 64 48V464C64 472.822 71.178 480 80 480H368C376.822 480 384 472.822 384 464V48z" />
    <glyph glyph-name="address-card"
      unicode="&#xF2BB;"
      horiz-adv-x="512" d=" M464 448H48C21.49 448 0 426.51 0 400V112C0 85.49 21.49 64 48 64H464C490.51 64 512 85.49 512 112V400C512 426.51 490.51 448 464 448zM480 112C480 103.178 472.822 96 464 96H48C39.178 96 32 103.178 32 112V400C32 408.822 39.178 416 48 416H464C472.822 416 480 408.822 480 400V112zM436 192H332C325.373 192 320 197.373 320 204V212C320 218.627 325.373 224 332 224H436C442.627 224 448 218.627 448 212V204C448 197.373 442.627 192 436 192zM436 256H332C325.373 256 320 261.373 320 268V276C320 282.627 325.373 288 332 288H436C442.627 288 448 282.627 448 276V268C448 261.373 442.627 256 436 256zM436 320H332C325.373 320 320 325.373 320 332V340C320 346.627 325.373 352 332 352H436C442.627 352 448 346.627 448 340V332C448 325.373 442.627 320 436 320zM250.16 259.83L244.02 261.94C251.62 274.17 256 288.5800000000001 256 304C256 348.11 220.11 384 176 384S96 348.11 96 304C96 288.5800000000001 100.38 274.17 107.98 261.94L101.84 259.83C79.21 252.07 64 230.78 64 206.86V172C64 147.74 83.74 128 108 128H244C268.26 128 288 147.74 288 172V206.86C288 230.7800000000001 272.79 252.07 250.16 259.8300000000001zM128 304C128 330.51 149.49 352 176 352S224 330.51 224 304C224 277.575 202.587 256 176 256C149.467 256 128 277.52 128 304zM256 172C256 165.37 250.63 160 244 160H108C101.37 160 96 165.37 96 172V206.86C96 217.11 102.52 226.23 112.22 229.56L132.88 236.64C145.33 228.64 160.13 224 176 224S206.67 228.64 219.12 236.64L239.78 229.56C249.48 226.23 256 217.11 256 206.86V172z" />
    <glyph glyph-name="adjust"
      unicode="&#xF042;"
      horiz-adv-x="512" d=" M256 472C375.945 472 472 374.663 472 256C472 136.055 374.663 40 256 40C136.055 40 40 137.337 40 256C40 375.945 137.337 472 256 472M256 504C119.033 504 8 392.967 8 256S119.033 8 256 8S504 119.033 504 256S392.967 504 256 504zM224 379.99V132.01C170.145 145.81 128 195.011 128 256C128 316.99 170.145 366.19 224 379.99M256 416C167.634 416 96 344.366 96 256S167.634 96 256 96V416z" />
    <glyph glyph-name="alarm-clock"
      unicode="&#xF34E;"
      horiz-adv-x="448" d=" M298.3 163.3L293.8 156.7C290 151.2 282.6 149.9 277.1 153.6L213.3 197.5C210 199.6999999999999 208.1 203.3999999999999 208.1 207.3999999999999V340C208.1 346.6 213.5 352 220.1 352H228.1C234.7 352 240.1 346.6 240.1 340V218L295.3 180C300.6 176.2 302 168.8 298.3 163.3zM377.6 61L411.3 27.3C417.5 21.1 417.5 10.9 411.3 4.7C405.1 -1.6 394.9000000000001 -1.5 388.7 4.7L352.7 40.7C316.3 15 271.9 0 224 0S131.7 15 95.3 40.7L59.3 4.7C53.1 -1.6 42.9 -1.5 36.7 4.7C30.5 10.9 30.5 21.1 36.7 27.3L70.4 61C27 101.8 0 159.8 0 224C0 261.7 9.3 297.3 25.8 328.5C9.7 347.9 0 372.8 0 400C0 461.9 50.1 512 112 512C156.8 512 195.4 485.7 213.3 447.8C220.4 448.1 227.8 448.1 234.6 447.8C252.4 485.4 290.9 512 336 512C397.9 512 448 461.9 448 400C448 372.8 438.3 347.9 422.2 328.5C438.7 297.3 448 261.7 448 224C448 159.8 421 101.8 377.6 61zM268.9 443.5C323.9 432.3 371.5 401 403.8 357.6C411.5 369.9 416 384.4 416 400C416 444.1 380.1 480 336 480C307.8999999999999 480 283.2 465.4 268.9 443.5zM32 400C32 384.4 36.5 369.9 44.2 357.6C76.5 401 124.2 432.3 179.1 443.5C164.8 465.4 140.1 480 112 480C67.9 480 32 444.1 32 400zM224 416C118 416 32 330 32 224S118 32 224 32S416 118 416 224S330 416 224 416z" />
    <glyph glyph-name="align-center"
      unicode="&#xF037;"
      horiz-adv-x="448" d=" M352 460V436A6 6 0 0 0 346 430H102A6 6 0 0 0 96 436V460A6 6 0 0 0 102 466H346A6 6 0 0 0 352 460zM6 302H442A6 6 0 0 1 448 308V332A6 6 0 0 1 442 338H6A6 6 0 0 1 0 332V308A6 6 0 0 1 6 302zM6 46H442A6 6 0 0 1 448 52V76A6 6 0 0 1 442 82H6A6 6 0 0 1 0 76V52A6 6 0 0 1 6 46zM346 210H102A6 6 0 0 1 96 204V180A6 6 0 0 1 102 174H346A6 6 0 0 1 352 180V204A6 6 0 0 1 346 210z" />
    <glyph glyph-name="align-justify"
      unicode="&#xF039;"
      horiz-adv-x="448" d=" M0 436V460A6 6 0 0 0 6 466H442A6 6 0 0 0 448 460V436A6 6 0 0 0 442 430H6A6 6 0 0 0 0 436zM6 302H442A6 6 0 0 1 448 308V332A6 6 0 0 1 442 338H6A6 6 0 0 1 0 332V308A6 6 0 0 1 6 302zM6 46H442A6 6 0 0 1 448 52V76A6 6 0 0 1 442 82H6A6 6 0 0 1 0 76V52A6 6 0 0 1 6 46zM6 174H442A6 6 0 0 1 448 180V204A6 6 0 0 1 442 210H6A6 6 0 0 1 0 204V180A6 6 0 0 1 6 174z" />
    <glyph glyph-name="align-left"
      unicode="&#xF036;"
      horiz-adv-x="448" d=" M288 460V436A6 6 0 0 0 282 430H6A6 6 0 0 0 0 436V460A6 6 0 0 0 6 466H282A6 6 0 0 0 288 460zM6 302H442A6 6 0 0 1 448 308V332A6 6 0 0 1 442 338H6A6 6 0 0 1 0 332V308A6 6 0 0 1 6 302zM6 46H442A6 6 0 0 1 448 52V76A6 6 0 0 1 442 82H6A6 6 0 0 1 0 76V52A6 6 0 0 1 6 46zM282 210H6A6 6 0 0 1 0 204V180A6 6 0 0 1 6 174H282A6 6 0 0 1 288 180V204A6 6 0 0 1 282 210z" />
    <glyph glyph-name="align-right"
      unicode="&#xF038;"
      horiz-adv-x="448" d=" M160 436V460A6 6 0 0 0 166 466H442A6 6 0 0 0 448 460V436A6 6 0 0 0 442 430H166A6 6 0 0 0 160 436zM6 302H442A6 6 0 0 1 448 308V332A6 6 0 0 1 442 338H6A6 6 0 0 1 0 332V308A6 6 0 0 1 6 302zM6 46H442A6 6 0 0 1 448 52V76A6 6 0 0 1 442 82H6A6 6 0 0 1 0 76V52A6 6 0 0 1 6 46zM166 174H442A6 6 0 0 1 448 180V204A6 6 0 0 1 442 210H166A6 6 0 0 1 160 204V180A6 6 0 0 1 166 174z" />
    <glyph glyph-name="ambulance"
      unicode="&#xF0F9;"
      horiz-adv-x="640" d=" M592 480H272C245.49 480 224 458.51 224 432V384H179.882A48 48 0 0 1 145.941 369.9410000000001L46.059 270.059A48 48 0 0 1 32 236.118V128H20C13.373 128 8 122.627 8 116V108C8 101.373 13.373 96 20 96H65.604A80.321 80.321 0 0 1 64 80C64 35.817 99.817 0 144 0S224 35.817 224 80C224 85.48 223.446 90.83 222.396 96H417.603A80.321 80.321 0 0 1 415.999 80C415.999 35.817 451.816 0 495.999 0S575.999 35.817 575.999 80C575.999 85.48 575.445 90.83 574.395 96H592C618.51 96 640 117.49 640 144V432C640 458.51 618.51 480 592 480zM224 128H208.001C193.406 147.43 170.172 160 144 160S94.594 147.43 79.999 128H64V236.118C64 240.392 65.664 244.41 68.686 247.432L168.568 347.314A15.895 15.895 0 0 0 179.882 352H224V128zM608 144C608 135.178 600.823 128 592 128H560.001C545.406 147.43 522.172 160 496 160S446.594 147.43 431.999 128H256V432C256 440.822 263.177 448 272 448H592C600.823 448 608 440.822 608 432V144zM512 304V272C512 265.373 506.627 260 500 260H444V204C444 197.373 438.627 192 432 192H400C393.373 192 388 197.373 388 204V260H332C325.373 260 320 265.373 320 272V304C320 310.627 325.373 316 332 316H388V372C388 378.627 393.373 384 400 384H432C438.627 384 444 378.627 444 372V316H500C506.627 316 512 310.627 512 304zM106.243 234.243L181.758 309.758C185.538 313.538 192.001 310.861 192.001 305.515V230A6 6 0 0 0 186.001 224H110.486C105.14 224 102.463 230.463 106.243 234.243zM496 128C522.467 128 544 106.467 544 80S522.467 32 496 32S448 53.533 448 80S469.533 128 496 128M144 128C170.467 128 192 106.467 192 80S170.467 32 144 32S96 53.533 96 80S117.533 128 144 128" />
    <glyph glyph-name="anchor"
      unicode="&#xF13D;"
      horiz-adv-x="576" d=" M504.485 247.515C499.799 252.201 492.201 252.201 487.514 247.515L420.485 180.486C412.925 172.926 418.279 160.001 428.9700000000001 160.001H478.099C461.111 91.251 390.501 38.4 304 32.548V320H356C362.627 320 368 325.373 368 332V340C368 346.627 362.627 352 356 352H304V386.016C332.513 393.355 353.336 419.849 351.933 450.963C350.453 483.774 323.832 510.421 291.022 511.93C254.302 513.619 224 484.348 224 448C224 418.179 244.396 393.121 272 386.016V352H220C213.373 352 208 346.627 208 340V332C208 325.373 213.373 320 220 320H272V32.548C185.498 38.4 114.888 91.251 97.901 160H147.03C157.721 160 163.075 172.926 155.515 180.485L88.486 247.515C83.8 252.201 76.202 252.201 71.515 247.515L4.486 180.485C-3.074 172.926 2.28 160 12.971 160H65.107C83.963 63.608 182.863 0 288 0C398.901 0 492.938 68.213 510.893 160H563.029C573.72 160 579.074 172.926 571.514 180.485L504.485 247.515zM256 448C256 465.645 270.355 480 288 480S320 465.645 320 448S305.645 416 288 416S256 430.355 256 448zM61.255 192L80 210.745L98.745 192H61.255zM477.255 192L496 210.745L514.745 192H477.255z" />
    <glyph glyph-name="angle-double-down"
      unicode="&#xF103;"
      horiz-adv-x="256" d=" M119.5 249.1L3.5 366.9C-1.2 371.6 -1.2 379.2000000000001 3.5 383.9L10.6 391C15.3 395.7 22.9 395.7 27.6 391L128 288.7L228.4 390.9C233.1 395.6 240.7 395.6 245.4 390.9L252.5 383.8C257.2 379.1 257.2 371.5 252.5 366.8L136.5 249C131.8 244.4 124.2 244.4 119.5 249.1zM136.5 121.1L252.5 238.9000000000001C257.2 243.6 257.2 251.2000000000001 252.5 255.9000000000001L245.4 263C240.7 267.7000000000001 233.1 267.7000000000001 228.4 263L128 160.7L27.6 262.9C22.9 267.6 15.3 267.6 10.6 262.9L3.5 255.8C-1.2 251.1 -1.2 243.5 3.5 238.8L119.5 121C124.2 116.4 131.8 116.4 136.5 121.1z" />
    <glyph glyph-name="angle-double-left"
      unicode="&#xF100;"
      horiz-adv-x="320" d=" M153.1 264.5L270.9 380.5C275.6 385.2 283.2 385.2 287.9 380.5L295 373.4C299.7 368.7000000000001 299.7 361.1 295 356.4L192.7 256L294.9 155.6C299.6 150.9 299.6 143.3 294.9 138.6L287.8 131.5C283.1 126.8 275.5 126.8 270.8 131.5L153 247.5C148.4 252.2 148.4 259.8 153.1 264.5zM25.1 247.5L142.9 131.5C147.6 126.8 155.2 126.8 159.9 131.5L167 138.6C171.7 143.3 171.7 150.9 167 155.6L64.7 256L166.9 356.4C171.6 361.1 171.6 368.7000000000001 166.9 373.4L159.8 380.5C155.1 385.2 147.5 385.2 142.8 380.5L25 264.5C20.4 259.8 20.4 252.2 25.1 247.5z" />
    <glyph glyph-name="angle-double-right"
      unicode="&#xF101;"
      horiz-adv-x="320" d=" M166.9 247.5L49.1 131.5C44.4 126.8 36.8 126.8 32.1 131.5L25 138.6C20.3 143.3 20.3 150.9 25 155.6L127.3 256L25.1 356.4C20.4 361.1 20.4 368.7000000000001 25.1 373.4L32.2 380.5C36.9 385.2 44.5 385.2 49.2 380.5L167 264.5C171.6 259.8 171.6 252.2 166.9 247.5zM294.9 264.5L177.1 380.5C172.4 385.2 164.8 385.2 160.1 380.5L153 373.4C148.3 368.7000000000001 148.3 361.1 153 356.4L255.3 256L153.1 155.6C148.4 150.9 148.4 143.3 153.1 138.6L160.2 131.5C164.9 126.8 172.5 126.8 177.2 131.5L295 247.5C299.6 252.2 299.6 259.8 294.9 264.5z" />
    <glyph glyph-name="angle-double-up"
      unicode="&#xF102;"
      horiz-adv-x="256" d=" M136.5 262.9L252.5 145.1C257.2 140.4 257.2 132.8 252.5 128.1L245.4 121C240.7 116.3 233.1 116.3 228.4 121L128 223.3L27.6 121.1C22.9 116.4 15.3 116.4 10.6 121.1L3.5 128.2000000000001C-1.2 132.9 -1.2 140.5000000000001 3.5 145.2000000000001L119.5 263.0000000000001C124.2 267.6 131.8 267.6 136.5 262.9000000000001zM119.5 390.9L3.5 273.1C-1.2 268.4 -1.2 260.8 3.5 256.1L10.6 249C15.3 244.3 22.9 244.3 27.6 249L128 351.3L228.4 249.1C233.1 244.4000000000001 240.7 244.4000000000001 245.4 249.1L252.5 256.2000000000001C257.2 260.9 257.2 268.5 252.5 273.2000000000001L136.5 391C131.8 395.6 124.2 395.6 119.5 390.9z" />
    <glyph glyph-name="angle-down"
      unicode="&#xF107;"
      horiz-adv-x="256" d=" M119.5 185.1L3.5 302.9C-1.2 307.6 -1.2 315.2000000000001 3.5 319.9L10.6 327C15.3 331.7 22.9 331.7 27.6 327L128 224.7L228.4 326.9C233.1 331.6 240.7 331.6 245.4 326.9L252.5 319.8C257.2 315.1 257.2 307.5 252.5 302.8L136.5 185C131.8 180.4 124.2 180.4 119.5 185.1z" />
    <glyph glyph-name="angle-left"
      unicode="&#xF104;"
      horiz-adv-x="192" d=" M25.1 264.5L142.9 380.5C147.6 385.2 155.2 385.2 159.9 380.5L167 373.4C171.7 368.7000000000001 171.7 361.1 167 356.4L64.7 256L166.9 155.6C171.6 150.9 171.6 143.3 166.9 138.6L159.8 131.5C155.1 126.8 147.5 126.8 142.8 131.5L25 247.5C20.4 252.2 20.4 259.8 25.1 264.5z" />
    <glyph glyph-name="angle-right"
      unicode="&#xF105;"
      horiz-adv-x="192" d=" M166.9 247.5L49.1 131.5C44.4 126.8 36.8 126.8 32.1 131.5L25 138.6C20.3 143.3 20.3 150.9 25 155.6L127.3 256L25.1 356.4C20.4 361.1 20.4 368.7000000000001 25.1 373.4L32.2 380.5C36.9 385.2 44.5 385.2 49.2 380.5L167 264.5C171.6 259.8 171.6 252.2 166.9 247.5z" />
    <glyph glyph-name="angle-up"
      unicode="&#xF106;"
      horiz-adv-x="256" d=" M136.5 326.9L252.5 209.1C257.2 204.4 257.2 196.8 252.5 192.1L245.4 185C240.7 180.3 233.1 180.3 228.4 185L128 287.3L27.6 185.1C22.9 180.4 15.3 180.4 10.6 185.1L3.5 192.2000000000001C-1.2 196.9 -1.2 204.5000000000001 3.5 209.2000000000001L119.5 327.0000000000001C124.2 331.6 131.8 331.6 136.5 326.9000000000001z" />
    <glyph glyph-name="archive"
      unicode="&#xF187;"
      horiz-adv-x="512" d=" M464 480H48C21.533 480 0 458.467 0 432V400C0 377.895 15.024 359.243 35.393 353.692A47.726 47.726 0 0 1 32 336V80C32 53.533 53.533 32 80 32H432C458.467 32 480 53.533 480 80V336A47.726 47.726 0 0 1 476.607 353.692C496.976 359.243 512 377.895 512 400V432C512 458.467 490.467 480 464 480zM448 80C448 71.163 440.836 64 432 64H80C71.163 64 64 71.163 64 80V336C64 344.837 71.163 352 80 352H432C440.836 352 448 344.837 448 336V80zM480 400C480 391.163 472.837 384 464 384H48C39.163 384 32 391.163 32 400V432C32 440.837 39.163 448 48 448H464C472.837 448 480 440.837 480 432V400zM308 256H204C197.373 256 192 261.373 192 268V276C192 282.627 197.373 288 204 288H308C314.627 288 320 282.627 320 276V268C320 261.373 314.627 256 308 256z" />
    <glyph glyph-name="arrow-alt-circle-down"
      unicode="&#xF358;"
      horiz-adv-x="512" d=" M256 504C119 504 8 393 8 256S119 8 256 8S504 119 504 256S393 504 256 504zM472 256C472 137.3 375.9 40 256 40C137.3 40 40 136.1 40 256C40 374.7 136.1 472 256 472C374.7 472 472 375.9 472 256zM384 288H320V392C320 405.2 309.2 416 296 416H216C202.8 416 192 405.2 192 392V288H128C99.6 288 85.2 253.5 105.4 233.4L233.4 105.4C245.9 92.9 266.2 92.9 278.7 105.4L406.7 233.4C426.7 253.5 412.5 288 384 288zM256 128L128 256H224V384H288V256H384L256 128z" />
    <glyph glyph-name="arrow-alt-circle-left"
      unicode="&#xF359;"
      horiz-adv-x="512" d=" M504 256C504 393 393 504 256 504S8 393 8 256S119 8 256 8S504 119 504 256zM256 40C137.3 40 40 136.1 40 256C40 374.7 136.1 472 256 472C374.7 472 472 375.9 472 256C472 137.3 375.9 40 256 40zM288 128V192H392C405.2 192 416 202.8 416 216V296C416 309.2 405.2 320 392 320H288V384C288 412.4 253.5 426.8 233.4 406.6L105.4 278.6C92.9 266.1 92.9 245.8 105.4 233.3L233.4 105.3C253.5 85.3 288 99.5 288 128zM128 256L256 384V288H384V224H256V128L128 256z" />
    <glyph glyph-name="arrow-alt-circle-right"
      unicode="&#xF35A;"
      horiz-adv-x="512" d=" M8 256C8 119 119 8 256 8S504 119 504 256S393 504 256 504S8 393 8 256zM256 472C374.7 472 472 375.9 472 256C472 137.3 375.9 40 256 40C137.3 40 40 136.1 40 256C40 374.7 136.1 472 256 472zM224 384V320H120C106.8 320 96 309.2 96 296V216C96 202.8 106.8 192 120 192H224V128C224 99.6 258.5 85.2 278.6 105.4L406.6 233.4C419.1 245.9 419.1 266.2 406.6 278.7L278.6 406.7C258.5 426.7 224 412.5 224 384zM384 256L256 128V224H128V288H256V384L384 256z" />
    <glyph glyph-name="arrow-alt-circle-up"
      unicode="&#xF35B;"
      horiz-adv-x="512" d=" M256 8C393 8 504 119 504 256S393 504 256 504S8 393 8 256S119 8 256 8zM40 256C40 374.7 136.1 472 256 472C374.7 472 472 375.9 472 256C472 137.3 375.9 40 256 40C137.3 40 40 136.1 40 256zM128 224H192V120C192 106.8 202.8 96 216 96H296C309.2 96 320 106.8 320 120V224H384C412.4 224 426.8 258.5 406.6 278.6L278.6 406.6C266.1 419.1 245.8 419.1 233.3 406.6L105.3 278.6C85.3 258.5 99.5 224 128 224zM256 384L384 256H288V128H224V256H128L256 384z" />
    <glyph glyph-name="arrow-alt-down"
      unicode="&#xF354;"
      horiz-adv-x="448" d=" M267.427 448C278.789 448 288 438.789 288 427.428V255.991H404.979C412.104 255.991 415.674 247.379 410.639 242.338L238.556 70.035C230.52 61.989 217.48 61.988 209.444 70.035L37.36 242.338C32.325 247.379 35.896 255.9910000000001 43.02 255.9910000000001H160V427.428C160 438.789 169.211 448 180.573 448H267.427M267.427 480H180.572C151.584 480 128 456.416 128 427.428V287.991H43.021C7.514 287.991 -10.476 244.951 14.719 219.725L186.802 47.422C207.352 26.8459999999999 240.644 26.842 261.198 47.422L433.281 219.725C458.372 244.847 440.632 287.991 404.979 287.991H320V427.428C320 456.416 296.416 480 267.427 480z" />
    <glyph glyph-name="arrow-alt-from-bottom"
      unicode="&#xF346;"
      horiz-adv-x="384" d=" M372 32H12C5.4 32 0 37.4 0 44V52C0 58.6 5.4 64 12 64H372C378.6 64 384 58.6 384 52V44C384 37.4 378.6 32 372 32zM153.1 128H230.8C239.6 128 246.8 135.2 246.8 144V288H340.7000000000001C347.8000000000001 288 351.4000000000001 296.6 346.4000000000001 301.6L203.3 445.2C197 451.5 186.9 451.5 180.6 445.2L37.6 301.6C32.6 296.6 36.1 288 43.3 288H137.2000000000001V144C137.1000000000001 135.2 144.3000000000001 128 153.1000000000001 128M153.1000000000001 96C126.6000000000001 96 105.1000000000001 117.5 105.1000000000001 144V256H43.3C7.7 256 -10.1 299.1 15 324.2L158 467.8C176.8 486.6 207.2 486.6 226 467.8L369.1 324.3C394.3 299.1 376.3 256.1 340.8 256.1H278.9000000000001V144.1C278.9000000000001 117.6 257.4000000000001 96.1 230.9000000000001 96.1H153.1V96z" />
    <glyph glyph-name="arrow-alt-from-left"
      unicode="&#xF347;"
      horiz-adv-x="448" d=" M0 76V436C0 442.6 5.4 448 12 448H20C26.6 448 32 442.6 32 436V76C32 69.4 26.6 64 20 64H12C5.4 64 0 69.4 0 76zM96 294.9V217.2C96 208.4 103.2 201.2 112 201.2H256V107.3C256 100.1999999999999 264.6 96.6 269.6 101.6L411.2000000000001 244.7C417.5000000000001 251 417.5000000000001 261.0999999999999 411.2000000000001 267.3999999999999L269.6 410.3999999999999C264.6 415.3999999999999 256 411.8999999999999 256 404.7V310.7999999999999H112C103.2 310.8999999999999 96 303.7 96 294.8999999999999M64 294.8999999999999C64 321.3999999999999 85.5 342.8999999999999 112 342.8999999999999H224V404.7999999999999C224 440.3999999999999 267.1 458.1999999999999 292.2 433.0999999999999L433.9 290C452.7 271.2 452.7 240.8 433.9 222L292.2 78.9C267 53.7 224 71.7 224 107.2V169.1H112C85.5 169.1 64 190.6 64 217.1V294.9z" />
    <glyph glyph-name="arrow-alt-from-right"
      unicode="&#xF348;"
      horiz-adv-x="448" d=" M448 436V76C448 69.4 442.6 64 436 64H428C421.4 64 416 69.4 416 76V436C416 442.6 421.4 448 428 448H436C442.6 448 448 442.6 448 436zM352 217.1V294.8C352 303.6 344.8 310.8 336 310.8H192V404.7000000000001C192 411.8 183.4 415.4000000000001 178.4 410.4000000000001L36.7 267.3C30.4 261 30.4 250.9000000000001 36.7 244.6L178.3 101.5C183.3 96.5 191.9 100 191.9 107.2V201.1H335.9C344.8 201.1 352 208.3 352 217.1M384 217.1C384 190.6 362.5 169.1 336 169.1H224V107.2000000000001C224 71.6 180.9 53.8000000000001 155.8 78.9L14.1 222C-4.7 240.8 -4.7 271.2 14.1 290L155.8 433.1C181 458.2 224 440.2 224 404.7V342.8H336C362.5 342.8 384 321.3 384 294.8V217.1z" />
    <glyph glyph-name="arrow-alt-from-top"
      unicode="&#xF349;"
      horiz-adv-x="384" d=" M12 480H372C378.6 480 384 474.6 384 468V460C384 453.4 378.6 448 372 448H12C5.4 448 0 453.4 0 460V468C0 474.6 5.4 480 12 480zM230.9 384H153.2C144.4 384 137.2 376.8 137.2 368V224H43.3C36.2 224 32.6 215.4 37.6 210.4L180.7 66.9C187 60.6 197.1 60.6 203.4 66.9L346.5 210.4C351.5 215.4 348 224 340.8 224H246.9V368C246.9 376.8 239.7 384 230.9 384M230.9 416C257.4 416 278.9 394.5 278.9 368V256H340.8C376.4 256 394.2 212.9 369.1 187.8L226 44.2C207.2 25.4 176.8 25.4 158 44.2L14.9 187.8C-10.2 213 7.8 256 43.3 256H105.2V368C105.2 394.5 126.7 416 153.2 416H230.9z" />
    <glyph glyph-name="arrow-alt-left"
      unicode="&#xF355;"
      horiz-adv-x="448.012" d=" M416.012 212.573C416.012 201.211 406.801 192 395.44 192H224.002V75.021C224.002 67.896 215.39 64.326 210.349 69.361L38.047 241.444C30.001 249.48 30 262.52 38.047 270.5560000000001L210.349 442.64C215.39 447.675 224.002 444.104 224.002 436.98V320H395.439C406.801 320 416.011 310.789 416.011 299.427V212.573M448.012 212.573V299.428C448.012 328.4170000000001 424.428 352.001 395.44 352.001H256.002V436.979C256.002 472.486 212.962 490.476 187.736 465.281L15.433 293.198C-5.143 272.648 -5.147 239.356 15.433 218.802L187.736 46.7190000000001C212.858 21.628 256.002 39.3680000000001 256.002 75.0210000000001V160H395.439C424.428 160 448.012 183.584 448.012 212.573z" />
    <glyph glyph-name="arrow-alt-right"
      unicode="&#xF356;"
      horiz-adv-x="448.012" d=" M32 299.427C32 310.789 41.211 320 52.572 320H224.009V436.979C224.009 444.104 232.621 447.674 237.662 442.639L409.9650000000001 270.556C418.011 262.52 418.0120000000001 249.48 409.9650000000001 241.444L237.662 69.36C232.621 64.325 224.009 67.896 224.009 75.02V192H52.572C41.211 192 32 201.211 32 212.573V299.427M0 299.427V212.572C0 183.584 23.584 160 52.572 160H192.009V75.021C192.009 39.514 235.049 21.524 260.2750000000001 46.719L432.5780000000001 218.802C453.1540000000001 239.3520000000001 453.158 272.644 432.5780000000001 293.1980000000001L260.276 465.281C235.154 490.372 192.01 472.632 192.01 436.979V352H52.572C23.584 352 0 328.416 0 299.427z" />
    <glyph glyph-name="arrow-alt-square-down"
      unicode="&#xF350;"
      horiz-adv-x="448" d=" M400 480H48C21.5 480 0 458.5 0 432V80C0 53.5 21.5 32 48 32H400C426.5 32 448 53.5 448 80V432C448 458.5 426.5 480 400 480zM416 80C416 71.2 408.8 64 400 64H48C39.2 64 32 71.2 32 80V432C32 440.8 39.2 448 48 448H400C408.8 448 416 440.8 416 432V80zM352 288H288V392C288 405.2 277.2 416 264 416H184C170.8 416 160 405.2 160 392V288H96C67.6 288 53.2 253.5 73.4 233.4L201.4 105.4C213.9 92.9 234.2 92.9 246.7 105.4L374.7 233.4C394.7 253.5 380.5 288 352 288zM224 128L96 256H192V384H256V256H352L224 128z" />
    <glyph glyph-name="arrow-alt-square-left"
      unicode="&#xF351;"
      horiz-adv-x="448" d=" M448 80V432C448 458.5 426.5 480 400 480H48C21.5 480 0 458.5 0 432V80C0 53.5 21.5 32 48 32H400C426.5 32 448 53.5 448 80zM48 64C39.2 64 32 71.2 32 80V432C32 440.8 39.2 448 48 448H400C408.8 448 416 440.8 416 432V80C416 71.2 408.8 64 400 64H48zM256 128V192H360C373.2 192 384 202.8 384 216V296C384 309.2 373.2 320 360 320H256V384C256 412.4 221.5 426.8 201.4 406.6L73.4 278.6C60.9 266.1 60.9 245.8 73.4 233.3L201.4 105.3C221.5 85.3 256 99.5 256 128zM96 256L224 384V288H352V224H224V128L96 256z" />
    <glyph glyph-name="arrow-alt-square-right"
      unicode="&#xF352;"
      horiz-adv-x="448" d=" M0 432V80C0 53.5 21.5 32 48 32H400C426.5 32 448 53.5 448 80V432C448 458.5 426.5 480 400 480H48C21.5 480 0 458.5 0 432zM400 448C408.8 448 416 440.8 416 432V80C416 71.2 408.8 64 400 64H48C39.2 64 32 71.2 32 80V432C32 440.8 39.2 448 48 448H400zM192 384V320H88C74.8 320 64 309.2 64 296V216C64 202.8 74.8 192 88 192H192V128C192 99.6 226.5 85.2 246.6 105.4L374.6 233.4C387.1 245.9 387.1 266.2 374.6 278.7L246.6 406.7C226.5000000000001 426.7 192 412.5 192 384zM352 256L224 128V224H96V288H224V384L352 256z" />
    <glyph glyph-name="arrow-alt-square-up"
      unicode="&#xF353;"
      horiz-adv-x="448" d=" M48 32H400C426.5 32 448 53.5 448 80V432C448 458.5 426.5 480 400 480H48C21.5 480 0 458.5 0 432V80C0 53.5 21.5 32 48 32zM32 432C32 440.8 39.2 448 48 448H400C408.8 448 416 440.8 416 432V80C416 71.2 408.8 64 400 64H48C39.2 64 32 71.2 32 80V432zM96 224H160V120C160 106.8 170.8 96 184 96H264C277.2 96 288 106.8 288 120V224H352C380.4 224 394.8 258.5 374.6 278.6L246.6 406.6C234.1 419.1 213.8 419.1 201.3 406.6L73.3 278.6C53.3 258.5 67.5 224 96 224zM224 384L352 256H256V128H192V256H96L224 384z" />
    <glyph glyph-name="arrow-alt-to-bottom"
      unicode="&#xF34A;"
      horiz-adv-x="384" d=" M230.9 448C239.7 448 246.9 440.8 246.9 432V288H340.8C347.9000000000001 288 351.5 279.4 346.5 274.4L203.3 130.8C197 124.5 186.9 124.5 180.6 130.8L37.6 274.4C32.6 279.4 36.1 288 43.3 288H137.2000000000001V432C137.2000000000001 440.8 144.4 448 153.2000000000001 448H230.9000000000001M230.9000000000001 480H153.2000000000001C126.7000000000001 480 105.2000000000001 458.5 105.2000000000001 432V320H43.3C7.8 320 -10.2 277 15 251.8L158 108.2000000000001C176.8 89.4 207.2 89.4 226 108.2000000000001L369.1 251.7000000000001C394.2000000000001 276.8000000000001 376.4000000000001 319.9000000000001 340.8 319.9000000000001H278.9000000000001V432C278.9000000000001 458.5 257.3 480 230.9000000000001 480zM384 44V52C384 58.6 378.6 64 372 64H12C5.4 64 0 58.6 0 52V44C0 37.4 5.4 32 12 32H372C378.6 32 384 37.4 384 44z" />
    <glyph glyph-name="arrow-alt-to-left"
      unicode="&#xF34B;"
      horiz-adv-x="448" d=" M416 217.1C416 208.3 408.8 201.1 400 201.1H256V107.2000000000001C256 100.1 247.4 96.5000000000001 242.4 101.5000000000001L98.8 244.7C92.5 251 92.5 261.1 98.8 267.4L242.3 410.5C247.3 415.5 255.9 412 255.9 404.8V310.9H399.9C408.7 310.9 415.9 303.7 415.9 294.9V217.1M448 217.1V294.8C448 321.3 426.5 342.8 400 342.8H288V404.7C288 440.2 245 458.1999999999999 219.8 433L76.2 290C57.4 271.2 57.4 240.8 76.2 222L219.7 78.9C244.8 53.8 287.9 71.6 287.9 107.2V169.1H399.9C426.5 169.1 448 190.7 448 217.1zM12 64H20C26.6 64 32 69.4 32 76V436C32 442.6 26.6 448 20 448H12C5.4 448 0 442.6 0 436V76C0 69.4 5.4 64 12 64z" />
    <glyph glyph-name="arrow-alt-to-right"
      unicode="&#xF34C;"
      horiz-adv-x="448" d=" M32 294.9C32 303.7000000000001 39.2 310.9 48 310.9H192V404.8C192 411.9 200.6 415.5 205.6 410.5L349.1 267.4000000000001C355.4000000000001 261.1 355.4000000000001 251.0000000000001 349.1 244.7000000000001L205.6 101.6C200.6 96.6 192 100.1 192 107.3V201.2000000000001H48C39.2 201.2000000000001 32 208.4 32 217.2000000000001V294.9000000000001M0 294.9000000000001V217.2000000000001C0 190.7000000000001 21.5 169.2000000000001 48 169.2000000000001H160V107.3000000000001C160 71.8000000000001 203 53.8000000000001 228.2 79.0000000000001L371.8 222.0000000000001C390.6 240.8000000000001 390.6 271.2000000000001 371.8 290.0000000000001L228.2 433.1C203.1 458.2 160 440.4 160 404.8V342.9H48C21.5 342.9 0 321.3 0 294.9zM436 448H428C421.4 448 416 442.6 416 436V76C416 69.4 421.4 64 428 64H436C442.6 64 448 69.4 448 76V436C448 442.6 442.6 448 436 448z" />
    <glyph glyph-name="arrow-alt-to-top"
      unicode="&#xF34D;"
      horiz-adv-x="384" d=" M153.1 64C144.3 64 137.1 71.2 137.1 80V224H43.3C36.2 224 32.6 232.6 37.6 237.6L180.7 381.1C187 387.4000000000001 197.1 387.4000000000001 203.4 381.1L346.5 237.6C351.5 232.6 348 224 340.8 224H246.9V80C246.9 71.2 239.7 64 230.9 64H153.1M153.1 32H230.8C257.3 32 278.8 53.5 278.8 80V192H340.7C376.2 192 394.2 235 369 260.2L226 403.8C207.2 422.6 176.8 422.6 158 403.8L14.9 260.2C-10.1 235.1 7.6 192 43.3 192H105.2V80C105.1 53.5 126.7 32 153.1 32zM0 468V460C0 453.4 5.4 448 12 448H372C378.6 448 384 453.4 384 460V468C384 474.6 378.6 480 372 480H12C5.4 480 0 474.6 0 468z" />
    <glyph glyph-name="arrow-alt-up"
      unicode="&#xF357;"
      horiz-adv-x="448" d=" M180.573 64C169.211 64 160 73.211 160 84.572V256.009H43.021C35.896 256.009 32.326 264.621 37.361 269.662L209.444 441.9650000000001C217.48 450.011 230.52 450.012 238.556 441.9650000000001L410.64 269.6620000000001C415.675 264.621 412.104 256.009 404.98 256.009H288V84.572C288 73.21 278.789 64 267.427 64H180.573M180.573 32H267.4280000000001C296.416 32 320 55.584 320 84.572V224.009H404.979C440.486 224.009 458.476 267.049 433.281 292.2750000000001L261.198 464.578C240.648 485.154 207.356 485.158 186.802 464.578L14.719 292.276C-10.372 267.154 7.368 224.01 43.021 224.01H128V84.573C128 55.584 151.584 32 180.573 32z" />
    <glyph glyph-name="arrow-circle-down"
      unicode="&#xF0AB;"
      horiz-adv-x="512" d=" M256 504C119 504 8 393 8 256S119 8 256 8S504 119 504 256S393 504 256 504zM472 256C472 137.3 375.9 40 256 40C137.3 40 40 136.1 40 256C40 374.7 136.1 472 256 472C374.7 472 472 375.9 472 256zM379.5 260.5L372.6 267.4C367.9000000000001 272.1 360.1 272.1 355.5 267.2000000000001L273 181.7V372C273 378.6 267.6 384 261 384H251C244.4 384 239 378.6 239 372V181.7L156.5 267.3C151.8 272.1 144.1 272.2 139.4 267.5L132.5 260.6C127.8 255.9 127.8 248.3 132.5 243.6L247.5 128.5C252.2 123.8 259.8 123.8 264.5 128.5L379.5 243.6C384.2 248.2000000000001 384.2 255.8 379.5 260.5z" />
    <glyph glyph-name="arrow-circle-left"
      unicode="&#xF0A8;"
      horiz-adv-x="512" d=" M504 256C504 393 393 504 256 504S8 393 8 256S119 8 256 8S504 119 504 256zM256 40C137.3 40 40 136.1 40 256C40 374.7 136.1 472 256 472C374.7 472 472 375.9 472 256C472 137.3 375.9 40 256 40zM243.5 132.5L128.4 247.5C123.7 252.2 123.7 259.8 128.4 264.5L243.5 379.5C248.2 384.2 255.8 384.2 260.5 379.5L267.4 372.6C272.1 367.9 272.1 360.1 267.2 355.5L181.7 273H372C378.6 273 384 267.6 384 261V251C384 244.4 378.6 239 372 239H181.7L267.3 156.5C272.1 151.8 272.2 144.1 267.5 139.4L260.6 132.5C255.8 127.8 248.2 127.8 243.5 132.5z" />
    <glyph glyph-name="arrow-circle-right"
      unicode="&#xF0A9;"
      horiz-adv-x="512" d=" M8 256C8 119 119 8 256 8S504 119 504 256S393 504 256 504S8 393 8 256zM256 472C374.7 472 472 375.9 472 256C472 137.3 375.9 40 256 40C137.3 40 40 136.1 40 256C40 374.7 136.1 472 256 472zM268.5 379.5L383.6 264.5C388.3 259.8 388.3 252.2 383.6 247.5L268.5 132.5C263.8 127.8 256.2 127.8 251.5 132.5L244.6 139.4C239.9 144.1 239.9 151.9 244.8 156.5L330.4 239H140C133.4 239 128 244.4 128 251V261C128 267.6 133.4 273 140 273H330.3L244.7 355.5C239.9 360.2 239.8 367.9 244.5000000000001 372.6L251.4000000000001 379.5C256.2000000000001 384.2 263.8 384.2 268.5000000000001 379.5z" />
    <glyph glyph-name="arrow-circle-up"
      unicode="&#xF0AA;"
      horiz-adv-x="512" d=" M256 8C393 8 504 119 504 256S393 504 256 504S8 393 8 256S119 8 256 8zM40 256C40 374.7 136.1 472 256 472C374.7 472 472 375.9 472 256C472 137.3 375.9 40 256 40C137.3 40 40 136.1 40 256zM132.5 268.5L247.5 383.6C252.2 388.3 259.8 388.3 264.5 383.6L379.5 268.5C384.2 263.8 384.2 256.2 379.5 251.5L372.6 244.6C367.9000000000001 239.9000000000001 360.1 239.9000000000001 355.5 244.8L273 330.3V140C273 133.4 267.6 128 261 128H251C244.4 128 239 133.4 239 140V330.3L156.5 244.7000000000001C151.8 239.9000000000001 144.1 239.8000000000001 139.4 244.5000000000001L132.5 251.4000000000001C127.8 256.2000000000001 127.8 263.8000000000001 132.5 268.5z" />
    <glyph glyph-name="arrow-down"
      unicode="&#xF063;"
      horiz-adv-x="448" d=" M443.5 263.5L436.4 270.6C431.7 275.3 424.1 275.3 419.4 270.6L241 92.1V468C241 474.6 235.6 480 229 480H219C212.4 480 207 474.6 207 468V92.1L28.5 270.6C23.8 275.3 16.2 275.3 11.5 270.6L4.4 263.5C-0.3 258.8 -0.3 251.2 4.4 246.5L215.4 35.4C220.1 30.7 227.7 30.7 232.4 35.4L443.4 246.5C448.2 251.3 448.2 258.8 443.5 263.5z" />
    <glyph glyph-name="arrow-from-bottom"
      unicode="&#xF342;"
      horiz-adv-x="384" d=" M35.5 328L183.5 476.5C188.2 481.2 195.8 481.2 200.5 476.5L348.5 328C353.2 323.3 353.2 315.7 348.5 311L341.4 303.9C336.7 299.2000000000001 329.1 299.2000000000001 324.4 303.9L209 419.9V108C209 101.4 203.6 96 197 96H187C180.4 96 175 101.4 175 108V419.9L59.6 304C54.9 299.3 47.3 299.3 42.6 304L35.5 311.1C30.8 315.7 30.8 323.3 35.5 328zM384 44V52C384 58.6 378.6 64 372 64H12C5.4 64 0 58.6 0 52V44C0 37.4 5.4 32 12 32H372C378.6 32 384 37.4 384 44z" />
    <glyph glyph-name="arrow-from-left"
      unicode="&#xF343;"
      horiz-adv-x="448" d=" M296 412.5L444.5 264.5C449.2 259.8 449.2 252.2 444.5 247.5L296 99.5C291.3 94.8 283.7 94.8 279 99.5L271.9 106.6C267.2 111.3 267.2 118.9 271.9 123.6L387.9 239H76C69.4 239 64 244.4 64 251V261C64 267.6 69.4 273 76 273H387.9L272 388.4C267.3 393.1 267.3 400.7 272 405.4L279.1 412.5C283.7000000000001 417.2 291.3 417.2 296 412.5zM12 64H20C26.6 64 32 69.4 32 76V436C32 442.6 26.6 448 20 448H12C5.4 448 0 442.6 0 436V76C0 69.4 5.4 64 12 64z" />
    <glyph glyph-name="arrow-from-right"
      unicode="&#xF344;"
      horiz-adv-x="448" d=" M152 99.5L3.5 247.5C-1.2 252.2 -1.2 259.8 3.5 264.5L152 412.5C156.7 417.2 164.3 417.2 169 412.5L176.1 405.4C180.8 400.7 180.8 393.1 176.1 388.4L60.1 273H372C378.6 273 384 267.6 384 261V251C384 244.4 378.6 239 372 239H60.1L176 123.6C180.7 118.9 180.7 111.3 176 106.6L168.9 99.5C164.3 94.8 156.7 94.8 152 99.5zM436 448H428C421.4 448 416 442.6 416 436V76C416 69.4 421.4 64 428 64H436C442.6 64 448 69.4 448 76V436C448 442.6 442.6 448 436 448z" />
    <glyph glyph-name="arrow-from-top"
      unicode="&#xF345;"
      horiz-adv-x="384" d=" M348.5 184L200.5 35.5C195.8 30.8 188.2 30.8 183.5 35.5L35.5 184C30.8 188.7 30.8 196.3 35.5 201L42.6 208.1C47.3 212.8 54.9 212.8 59.6 208.1L175 92.1V404C175 410.6 180.4 416 187 416H197C203.6 416 209 410.6 209 404V92.1L324.4 208C329.1 212.7 336.7 212.7 341.4 208L348.5 200.9C353.2 196.3 353.2 188.7 348.5 184zM0 468V460C0 453.4 5.4 448 12 448H372C378.6 448 384 453.4 384 460V468C384 474.6 378.6 480 372 480H12C5.4 480 0 474.6 0 468z" />
    <glyph glyph-name="arrow-left"
      unicode="&#xF060;"
      horiz-adv-x="448" d=" M231.536 36.465L238.607 43.535C243.293 48.2209999999999 243.293 55.819 238.607 60.506L60.113 239H436C442.627 239 448 244.373 448 251V261C448 267.627 442.627 273 436 273H60.113L238.607 451.494C243.293 456.18 243.293 463.778 238.607 468.465L231.536 475.535C226.85 480.221 219.252 480.221 214.566 475.535L3.515 264.485C-1.171 259.799 -1.171 252.201 3.515 247.514L214.566 36.464C219.252 31.778 226.85 31.778 231.536 36.465z" />
    <glyph glyph-name="arrow-right"
      unicode="&#xF061;"
      horiz-adv-x="448" d=" M216.464 475.535L209.393 468.465C204.707 463.779 204.707 456.181 209.393 451.494L387.887 273H12C5.373 273 0 267.627 0 261V251C0 244.373 5.373 239 12 239H387.887L209.393 60.506C204.707 55.82 204.707 48.222 209.393 43.535L216.464 36.465C221.15 31.779 228.748 31.779 233.434 36.465L444.485 247.515C449.171 252.201 449.171 259.799 444.485 264.486L233.434 475.535C228.748 480.222 221.15 480.222 216.464 475.535z" />
    <glyph glyph-name="arrow-square-down"
      unicode="&#xF339;"
      horiz-adv-x="448" d=" M347.5 243.5L232.5 128.4C227.8 123.7 220.2 123.7 215.5 128.4L100.5 243.5C95.8 248.2 95.8 255.8 100.5 260.5L107.4 267.4C112.1 272.1 119.9 272.1 124.5 267.2000000000001L207 181.6V372C207 378.6 212.4 384 219 384H229C235.6 384 241 378.6 241 372V181.7L323.5 267.3C328.2 272.1 335.9 272.2 340.6 267.5L347.5 260.6C352.2 255.8 352.2 248.2 347.5 243.5zM448 432V80C448 53.5 426.5 32 400 32H48C21.5 32 0 53.5 0 80V432C0 458.5 21.5 480 48 480H400C426.5 480 448 458.5 448 432zM416 432C416 440.8 408.8 448 400 448H48C39.2 448 32 440.8 32 432V80C32 71.2 39.2 64 48 64H400C408.8 64 416 71.2 416 80V432z" />
    <glyph glyph-name="arrow-square-left"
      unicode="&#xF33A;"
      horiz-adv-x="448" d=" M211.5 132.5L96.4 247.5C91.7 252.2 91.7 259.8 96.4 264.5L211.5 379.5C216.2 384.2 223.8 384.2 228.5 379.5L235.4 372.6C240.1 367.9 240.1 360.1 235.2 355.5L149.7 273H340C346.6 273 352 267.6 352 261V251C352 244.4 346.6 239 340 239H149.7L235.3 156.5C240.1 151.8 240.2 144.1 235.5 139.4L228.6 132.5C223.8 127.8 216.2 127.8 211.5 132.5zM400 32H48C21.5 32 0 53.5 0 80V432C0 458.5 21.5 480 48 480H400C426.5 480 448 458.5 448 432V80C448 53.5 426.5 32 400 32zM400 64C408.8 64 416 71.2 416 80V432C416 440.8 408.8 448 400 448H48C39.2 448 32 440.8 32 432V80C32 71.2 39.2 64 48 64H400z" />
    <glyph glyph-name="arrow-square-right"
      unicode="&#xF33B;"
      horiz-adv-x="448" d=" M236.5 379.5L351.6 264.5C356.3 259.8 356.3 252.2 351.6 247.5L236.5000000000001 132.5C231.8000000000001 127.8 224.2 127.8 219.5 132.5L212.6 139.4C207.9 144.1 207.9 151.9 212.8 156.5L298.4 239H108C101.4 239 96 244.4 96 251V261C96 267.6 101.4 273 108 273H298.3L212.7 355.5C207.9 360.2 207.8 367.9 212.5 372.6L219.4 379.5C224.2000000000001 384.2 231.8000000000001 384.2 236.5000000000001 379.5zM48 480H400C426.5 480 448 458.5 448 432V80C448 53.5 426.5 32 400 32H48C21.5 32 0 53.5 0 80V432C0 458.5 21.5 480 48 480zM48 448C39.2 448 32 440.8 32 432V80C32 71.2 39.2 64 48 64H400C408.8 64 416 71.2 416 80V432C416 440.8 408.8 448 400 448H48z" />
    <glyph glyph-name="arrow-square-up"
      unicode="&#xF33C;"
      horiz-adv-x="448" d=" M100.5 268.5L215.5 383.6C220.2 388.3 227.8 388.3 232.5 383.6L347.5 268.5C352.2 263.8 352.2 256.2 347.5 251.5L340.6 244.6C335.9000000000001 239.9000000000001 328.1 239.9000000000001 323.5 244.8L241 330.3V140C241 133.4 235.6 128 229 128H219C212.4 128 207 133.4 207 140V330.3L124.5 244.7000000000001C119.8 239.9000000000001 112.1 239.8000000000001 107.4 244.5000000000001L100.5 251.4000000000001C95.8 256.2000000000001 95.8 263.8000000000001 100.5 268.5zM0 80V432C0 458.5 21.5 480 48 480H400C426.5 480 448 458.5 448 432V80C448 53.5 426.5 32 400 32H48C21.5 32 0 53.5 0 80zM32 80C32 71.2 39.2 64 48 64H400C408.8 64 416 71.2 416 80V432C416 440.8 408.8 448 400 448H48C39.2 448 32 440.8 32 432V80z" />
    <glyph glyph-name="arrow-to-bottom"
      unicode="&#xF33D;"
      horiz-adv-x="384" d=" M348.5 248L200.5 99.5C195.8 94.8 188.2 94.8 183.5 99.5L35.5 248C30.8 252.7 30.8 260.3 35.5 265L42.6 272.1C47.3 276.8 54.9 276.8 59.6 272.1L175 156.1V468C175 474.6 180.4 480 187 480H197C203.6 480 209 474.6 209 468V156.1L324.4 272C329.1 276.7 336.7 276.7 341.4 272L348.5 264.9C353.2 260.3 353.2 252.7 348.5 248zM384 44V52C384 58.6 378.6 64 372 64H12C5.4 64 0 58.6 0 52V44C0 37.4 5.4 32 12 32H372C378.6 32 384 37.4 384 44z" />
    <glyph glyph-name="arrow-to-left"
      unicode="&#xF33E;"
      horiz-adv-x="448" d=" M216 99.5L67.5 247.5C62.8 252.2 62.8 259.8 67.5 264.5L216 412.5C220.7 417.2 228.3 417.2 233 412.5L240.1 405.4C244.8 400.7 244.8 393.1 240.1 388.4L124.1 273H436C442.6 273 448 267.6 448 261V251C448 244.4 442.6 239 436 239H124.1L240 123.6C244.7 118.9 244.7 111.3 240 106.6L232.9 99.5C228.3 94.8 220.7 94.8 216 99.5zM12 64H20C26.6 64 32 69.4 32 76V436C32 442.6 26.6 448 20 448H12C5.4 448 0 442.6 0 436V76C0 69.4 5.4 64 12 64z" />
    <glyph glyph-name="arrow-to-right"
      unicode="&#xF340;"
      horiz-adv-x="448" d=" M215 412.5L207.9 405.4C203.2 400.7 203.2 393.1 207.9 388.4L323.9 273H12C5.4 273 0 267.6 0 261V251C0 244.4 5.4 239 12 239H323.9L208 123.6C203.3 118.9 203.3 111.3 208 106.6L215.1 99.5C219.8 94.8 227.4 94.8 232.1 99.5L380.6 247.5C385.3 252.2 385.3 259.8 380.6 264.5L232 412.5C227.3 417.2 219.7 417.2 215 412.5zM448 436V76C448 69.4 442.6 64 436 64H428C421.4 64 416 69.4 416 76V436C416 442.6 421.4 448 428 448H436C442.6 448 448 442.6 448 436z" />
    <glyph glyph-name="arrow-to-top"
      unicode="&#xF341;"
      horiz-adv-x="384" d=" M35.5 264L183.5 412.5C188.2 417.2 195.8 417.2 200.5 412.5L348.5 264C353.2 259.3 353.2 251.7 348.5 247L341.4 239.9C336.7 235.2 329.1 235.2 324.4 239.9L209 355.9V44C209 37.4 203.6 32 197 32H187C180.4 32 175 37.4 175 44V355.9L59.6 240C54.9 235.3 47.3 235.3 42.6 240L35.5 247.1C30.8 251.7000000000001 30.8 259.3 35.5 264zM0 468V460C0 453.4 5.4 448 12 448H372C378.6 448 384 453.4 384 460V468C384 474.6 378.6 480 372 480H12C5.4 480 0 474.6 0 468z" />
    <glyph glyph-name="arrow-up"
      unicode="&#xF062;"
      horiz-adv-x="448" d=" M4.465 248.464L11.535 241.393C16.221 236.707 23.819 236.707 28.506 241.393L207 419.887V44C207 37.373 212.373 32 219 32H229C235.627 32 241 37.373 241 44V419.887L419.4940000000001 241.394C424.18 236.7080000000001 431.778 236.7080000000001 436.4650000000001 241.394L443.5350000000001 248.4650000000001C448.221 253.151 448.221 260.749 443.5350000000001 265.4350000000001L232.485 476.485C227.799 481.171 220.201 481.171 215.514 476.485L4.465 265.434C-0.222 260.748 -0.222 253.15 4.465 248.464z" />
    <glyph glyph-name="arrows-alt-h"
      unicode="&#xF337;"
      horiz-adv-x="512" d=" M384 319.968V273H128V319.962C128 348.387 93.512 362.729 73.373 342.589L9.373 278.627C-3.123 266.131 -3.125 245.87 9.373 233.372L73.373 169.404C93.472 149.305 128 163.55 128 192.032V239H384V192.038C384 163.613 418.487 149.271 438.627 169.411L502.627 233.373C515.123 245.869 515.125 266.13 502.627 278.628L438.627 342.596C418.528 362.695 384 348.45 384 319.968zM100 192.032C100 188.484 95.704 186.671 93.167 189.209L29.172 253.1720000000001A3.9950000000000006 3.9950000000000006 0 0 0 29.166 258.8230000000001L93.172 322.7910000000001C95.705 325.3230000000001 100.001 323.5150000000001 100.001 319.9630000000001V192.0320000000001zM418.8330000000001 322.792L482.828 258.829A3.9950000000000006 3.9950000000000006 0 0 0 482.834 253.178L418.828 189.21C416.296 186.678 411.999 188.485 411.999 192.038V319.968C412 323.516 416.296 325.329 418.833 322.792z" />
    <glyph glyph-name="arrows-alt-v"
      unicode="&#xF338;"
      horiz-adv-x="192" d=" M159.968 128H113V384H159.962C188.387 384 202.729 418.488 182.589 438.627L118.627 502.627C106.131 515.123 85.87 515.125 73.372 502.627L9.404 438.627C-10.695 418.528 3.55 384 32.032 384H79V128H32.038C3.613 128 -10.729 93.513 9.411 73.373L73.373 9.373C85.869 -3.123 106.13 -3.125 118.628 9.373L182.596 73.373C202.695 93.472 188.45 128 159.968 128zM32.032 412C28.484 412 26.671 416.296 29.209 418.833L93.172 482.828A3.9950000000000006 3.9950000000000006 0 0 0 98.823 482.834L162.791 418.828C165.323 416.295 163.515 411.999 159.963 411.999H32.032zM162.792 93.167L98.829 29.172A3.9950000000000006 3.9950000000000006 0 0 0 93.178 29.166L29.21 93.171C26.678 95.703 28.485 100 32.038 100H159.968C163.516 100 165.329 95.704 162.792 93.167z" />
    <glyph glyph-name="arrows-alt"
      unicode="&#xF0B2;"
      horiz-adv-x="512" d=" M322.469 132.44L272 132.442V240H379.556L379.553 189.533C379.553 160.2460000000001 415.087 145.469 435.837 166.219L502.343 232.686C515.218 245.561 515.2199999999999 266.437 502.343 279.313L435.844 345.779C415.135 366.488 379.56 351.8110000000001 379.56 322.4650000000001L379.558 272H272V379.5560000000001L322.463 379.553C351.75 379.553 366.5270000000001 415.087 345.7770000000001 435.837L279.31 502.343C266.435 515.218 245.559 515.22 232.683 502.343L166.217 435.844C145.508 415.135 160.185 379.56 189.531 379.56L240 379.558V272H132.444L132.447 322.467C132.447 351.754 96.914 366.531 76.163 345.781L9.657 279.314C-3.218 266.439 -3.22 245.563 9.657 232.686L76.156 166.22C96.865 145.511 132.44 160.188 132.44 189.534L132.442 240H240V132.444L189.537 132.447C160.25 132.447 145.473 96.913 166.223 76.163L232.69 9.657C245.565 -3.218 266.441 -3.2199999999999 279.317 9.657L345.783 76.1560000000001C366.492 96.8650000000001 351.815 132.4400000000001 322.469 132.4400000000001zM415.45 325.375L481.943 258.915A4.117 4.117 0 0 0 481.949 253.0920000000001L415.437 186.619C412.827 184.0100000000001 408.401 185.8730000000001 408.401 189.533L408.408 322.4650000000001C408.41 326.121 412.836 327.9890000000001 415.45 325.375zM189.531 408.41C185.876 408.41 184.008 412.836 186.622 415.451L253.082 481.944A4.117 4.117 0 0 0 258.905 481.95L325.378 415.438C327.987 412.828 326.124 408.402 322.464 408.402L189.531 408.41zM96.55 186.625L30.057 253.085A4.117 4.117 0 0 0 30.051 258.908L96.563 325.381C99.173 327.99 103.599 326.127 103.599 322.467L103.592 189.535C103.59 185.879 99.164 184.011 96.55 186.625zM253.095 30.05L186.622 96.562C184.013 99.172 185.876 103.598 189.536 103.598L322.468 103.591C326.123 103.591 327.991 99.165 325.377 96.55L258.917 30.057A4.115 4.115 0 0 0 253.095 30.05z" />
    <glyph glyph-name="arrows-h"
      unicode="&#xF07E;"
      horiz-adv-x="512" d=" M399.959 341.415C395.273 336.729 395.273 329.131 399.959 324.444L451.887 273H60.113L112.041 324.444C116.727 329.13 116.727 336.728 112.041 341.415L104.97 348.485C100.284 353.1710000000001 92.686 353.1710000000001 88 348.485L3.515 264.485C-1.171 259.799 -1.171 252.201 3.515 247.514L88 163.514C92.686 158.828 100.284 158.828 104.97 163.514L112.041 170.584C116.727 175.27 116.727 182.868 112.041 187.555L60.113 239H451.886L399.9580000000001 187.556C395.2720000000001 182.87 395.2720000000001 175.272 399.9580000000001 170.585L407.0290000000001 163.515C411.7150000000001 158.829 419.3130000000001 158.829 423.999 163.515L508.484 247.515C513.171 252.201 513.171 259.799 508.484 264.486L423.999 348.486C419.3130000000001 353.1720000000001 411.7150000000001 353.1720000000001 407.029 348.486L399.959 341.415z" />
    <glyph glyph-name="arrows-v"
      unicode="&#xF07D;"
      horiz-adv-x="192" d=" M181.415 112.041C176.729 116.727 169.131 116.727 164.444 112.041L113 60.113V451.887L164.444 399.959C169.13 395.273 176.728 395.273 181.415 399.959L188.485 407.03C193.171 411.716 193.171 419.314 188.485 424L104.485 508.485C99.799 513.171 92.201 513.171 87.514 508.485L3.515 424C-1.171 419.314 -1.171 411.716 3.515 407.03L10.585 399.959C15.271 395.273 22.869 395.273 27.556 399.959L79 451.887V60.114L27.556 112.042C22.87 116.728 15.272 116.728 10.585 112.042L3.515 104.971C-1.171 100.285 -1.171 92.687 3.515 88.001L87.515 3.516C92.201 -1.171 99.799 -1.171 104.486 3.516L188.486 88.001C193.172 92.687 193.172 100.285 188.486 104.971L181.415 112.041z" />
    <glyph glyph-name="arrows"
      unicode="&#xF047;"
      horiz-adv-x="512" d=" M337.782 77.296L264.485 3.514C259.7990000000001 -1.172 252.201 -1.172 247.514 3.514L174.218 77.296C169.532 81.982 169.532 89.58 174.218 94.266L181.288 101.336C185.974 106.0219999999999 193.572 106.0219999999999 198.259 101.336L239 60.113H240V240H60.113V239L101.337 198.259C106.023 193.573 106.023 185.975 101.337 181.288L94.266 174.218C89.58 169.5320000000001 81.982 169.5320000000001 77.296 174.218L3.515 247.515C-1.171 252.201 -1.171 259.799 3.515 264.486L77.297 337.783C81.983 342.469 89.581 342.469 94.268 337.783L101.339 330.712C106.025 326.026 106.025 318.428 101.339 313.741L60.113 273V272H240V451.887H239L198.259 410.663C193.573 405.977 185.975 405.977 181.288 410.663L174.218 417.7340000000001C169.532 422.42 169.531 430.0180000000001 174.218 434.704L247.515 508.486C252.201 513.172 259.7990000000001 513.172 264.486 508.486L337.783 434.704C342.469 430.0180000000001 342.469 422.42 337.783 417.733L330.712 410.6620000000001C326.026 405.976 318.428 405.976 313.741 410.6620000000001L273 451.887H272V272H451.887V273L410.663 313.741C405.9770000000001 318.427 405.9770000000001 326.025 410.663 330.712L417.7340000000001 337.782C422.42 342.468 430.0180000000001 342.468 434.7040000000001 337.782L508.486 264.485C513.173 259.799 513.172 252.201 508.486 247.514L434.7040000000001 174.217C430.0180000000001 169.531 422.4200000000001 169.531 417.7340000000001 174.217L410.663 181.287C405.9770000000001 185.973 405.9770000000001 193.571 410.663 198.258L451.887 239V240H272V60.113H273L313.741 101.337C318.427 106.023 326.025 106.023 330.712 101.337L337.782 94.266C342.468 89.581 342.468 81.983 337.782 77.2959999999999z" />
    <glyph glyph-name="asterisk"
      unicode="&#xF069;"
      horiz-adv-x="512" d=" M475.31 147.856L288 256L475.31 364.144C481.05 367.458 483.016 374.7970000000001 479.702 380.536L475.702 387.464C472.388 393.204 465.049 395.17 459.31 391.856L272 283.713V500C272 506.627 266.627 512 260 512H252C245.373 512 240 506.627 240 500V283.713L52.69 391.856C46.95 395.17 39.611 393.203 36.298 387.464L32.298 380.536C28.984 374.796 30.951 367.457 36.69 364.144L224 256L36.69 147.856C30.95 144.542 28.984 137.203 32.298 131.464L36.298 124.536C39.612 118.796 46.951 116.83 52.69 120.144L240 228.287V12C240 5.373 245.373 0 252 0H260C266.627 0 272 5.373 272 12V228.287L459.31 120.144C465.05 116.83 472.389 118.797 475.702 124.536L479.702 131.464C483.016 137.204 481.049 144.543 475.31 147.856z" />
    <glyph glyph-name="at"
      unicode="&#xF1FA;"
      horiz-adv-x="512" d=" M256 504C118.941 504 8 393.081 8 256C8 118.942 118.919 8 256 8C308.925 8 360.68 25.078 403.092 56.319C408.593 60.371 409.515 68.243 405.187 73.53L400.113 79.728C396.0950000000001 84.637 388.92 85.611 383.806 81.857C346.93 54.792 301.974 40 256 40C136.627 40 40 136.607 40 256C40 375.375 136.607 472 256 472C374.445 472 472 391.976 472 272C472 199.127 419.181 163.759 355.935 163.759C336.201 163.759 332.24 174.575 336.432 197.627L368.502 361.698C369.951 369.1090000000001 364.276 376 356.725 376H344.3040000000001A12 12 0 0 1 332.523 366.2820000000001C330.2290000000001 354.4360000000001 329.663 352.818 328.6620000000001 340.635C316.9330000000001 367.713 290.023 383.658 255.2870000000001 383.658C187.2430000000001 383.658 122.1110000000001 320.7080000000001 122.1110000000001 226.6310000000001C122.1110000000001 165.0440000000001 156.0260000000001 128.2770000000001 212.8340000000001 128.2770000000001C252.5630000000001 128.2770000000001 283.4350000000001 152.5550000000001 299.4670000000001 175.259C298.2560000000001 147.473 316.9220000000001 133.046 345.4420000000001 133.046C453.089 133.046 504 190.271 504 272C504 408.1860000000001 393.863 504 256 504zM218.08 161.373C181.399 161.373 159.5 186.481 159.5 228.539C159.5 303.229 210.265 350.084 256.717 350.084C295.574 350.084 314.819 322.294 314.819 284.349C314.819 226.216 276.45 161.373 218.08 161.373z" />
    <glyph glyph-name="backward"
      unicode="&#xF04A;"
      horiz-adv-x="512" d=" M267.5 230.9L459.5 71.5C480.1 54.3 512 68.7 512 96.1V416C512 443.4 480.1 457.8 459.5 440.6L267.5 280C252.2 267.2 252.2 243.6 267.5 230.9zM288 255.4L480 416V96L288 255.4zM11.5 230.9L203.5 71.5C224.1 54.3 256 68.7 256 96.1V416C256 443.4 224.1 457.8 203.5 440.6L11.5 280C-3.8 267.2 -3.8 243.6 11.5 230.9zM32 255.4L224 416V96L32 255.4z" />
    <glyph glyph-name="badge-check"
      unicode="&#xF336;"
      horiz-adv-x="512" d=" M512 256C512 291.496 492.589 324.153 462.402 341.502C471.477 375.113 462.113 411.9260000000001 437.019 437.019C411.927 462.113 375.117 471.477 341.501 462.403C324.153 492.589 291.496 512 256 512S187.847 492.589 170.498 462.402C136.886 471.478 100.073 462.111 74.98 437.0180000000001C49.886 411.925 40.522 375.113 49.597 341.501C19.411 324.153 0 291.496 0 256S19.411 187.847 49.598 170.498C40.523 136.887 49.887 100.074 74.981 74.979C101.492 48.472 138.436 40.825 170.513 49.573C187.865 19.4 220.514 0 256 0S324.135 19.4 341.487 49.573C374.196 40.653 410.958 48.922 437.019 74.98C462.1129999999999 100.074 471.477 136.886 462.4019999999999 170.4979999999999C492.589 187.847 512 220.504 512 256zM420.855 187.71C426.201 175.932 450.437 133.653 414.392 97.608C385.529 68.747 356.8450000000001 76.3679999999999 324.289 91.144C319.745 79.041 306.99 32 256 32C203.894 32 191.319 81.533 187.71 91.145C155.099 76.344 126.36 68.859 97.607 97.608C60.861 134.355 86.781 178.098 91.144 187.711C79.042 192.255 32 205.01 32 256C32 308.106 81.533 320.681 91.145 324.29C85.799 336.068 61.563 378.3470000000001 97.608 414.3920000000001C134.444 451.225 178.364 425.098 187.711 420.856C192.255 432.959 205.01 480 256 480C308.106 480 320.681 430.467 324.29 420.855C336.0590000000001 426.197 378.3490000000001 450.435 414.3930000000001 414.391C451.139 377.646 425.2190000000001 333.902 420.8560000000001 324.289C432.9580000000001 319.745 480 306.99 480 256C480 203.894 430.467 191.319 420.855 187.71zM388.451 326.512L207.971 147.48C203.266 142.8130000000001 195.668 142.843 191.001 147.548L105.123 234.12C100.456 238.825 100.486 246.423 105.191 251.0900000000001L113.711 259.5410000000001C118.416 264.2080000000001 126.014 264.178 130.682 259.473L199.658 189.94L363.099 352.069C367.804 356.736 375.402 356.706 380.069 352.001L388.521 343.481C393.187 338.778 393.156 331.18 388.451 326.512z" />
    <glyph glyph-name="badge"
      unicode="&#xF335;"
      horiz-adv-x="512" d=" M256 0C220.5 0 187.9 19.4 170.5 49.6C138.4 40.9 101.5 48.5 75 75C49.9 100.1 40.5 136.9 49.6 170.5C19.4 187.8 0 220.5 0 256S19.4 324.2 49.6 341.5C40.5 375.1 49.9 411.9 75 437C100.1 462.1 136.9 471.5 170.5 462.4C187.8 492.6 220.5 512 256 512S324.2 492.6 341.5 462.4C375.1 471.5 411.9 462.1 437 437C462.1 411.9 471.5 375.1 462.4 341.5C492.6 324.2 512 291.5 512 256S492.6 187.8 462.4 170.5C471.5 136.9 462.1 100.1 437 75C410.9 48.9 374.2 40.7 341.5 49.6C324.1 19.4 291.5 0 256 0zM187.7 91.1C191.3 81.5 203.9 32 256 32C307 32 319.7 79 324.3 91.1C356.9000000000001 76.3 385.5 68.7000000000001 414.4 97.6C450.4 133.6 426.2 175.9 420.9 187.7000000000001C430.5 191.3000000000001 480 203.9 480 256.0000000000001C480 307.0000000000001 433 319.7000000000001 420.9 324.3000000000001C425.3 333.9000000000001 451.2 377.7000000000001 414.4 414.4000000000001C378.4 450.4000000000001 336.1 426.2000000000001 324.3 420.9000000000001C320.7 430.5 308.1 480 256 480C205 480 192.3 433 187.7 420.9C178.4 425.1 134.4 451.3 97.6 414.4C61.6 378.4 85.8 336.1 91.1 324.3C81.5 320.7 32 308.1 32 256C32 205 79 192.3 91.1 187.7C86.7 178.1 60.8 134.3 97.6 97.6C126.4 68.9 155.1 76.3 187.7 91.1z" />
    <glyph glyph-name="balance-scale"
      unicode="&#xF24E;"
      horiz-adv-x="576" d=" M304 354.016C331.604 361.121 352 386.178 352 416H468C474.627 416 480 421.373 480 428V436C480 442.627 474.627 448 468 448H343.417C318.733 490.653 257.251 490.624 232.584 448H108C101.373 448 96 442.627 96 436V428C96 421.373 101.373 416 108 416H224C224 386.179 244.396 361.121 272 354.016V64H108C101.373 64 96 58.627 96 52V44C96 37.373 101.373 32 108 32H468C474.627 32 480 37.373 480 44V52C480 58.627 474.627 64 468 64H304V354.016zM256 416C256 433.645 270.355 448 288 448S320 433.645 320 416S305.645 384 288 384S256 398.355 256 416zM575.983 224C575.982 237.131 577.5329999999999 230.723 491.136 368.9600000000001C478.631 388.969 449.401 389.019 436.864 368.9600000000001C349.966 229.923 352.017 236.847 352.017 224H352C352 168.645 404.671 128 464 128C522.921 128 576 168.307 576 224H575.983zM464 352L544 224H384L464 352zM394.7630000000001 192H533.238C502.296 149.32 425.6410000000001 149.407 394.7630000000001 192zM224 224H223.983C223.982 237.131 225.533 230.723 139.136 368.9600000000001C126.631 388.969 97.401 389.019 84.864 368.9600000000001C-2.034 229.923 0.017 236.847 0.017 224H0C0 168.138 53.283 128 112 128C170.784 128 224 168.193 224 224zM112 352L192 224H32L112 352zM42.763 192H181.238C150.296 149.32 73.641 149.407 42.763 192z" />
    <glyph glyph-name="ban"
      unicode="&#xF05E;"
      horiz-adv-x="512" d=" M256 504C119.033 504 8 392.967 8 256S119.033 8 256 8S504 119.033 504 256S392.967 504 256 504zM103.265 103.265C22.643 183.887 19.116 312.222 92.365 397.008L397.009 92.365C312.2050000000001 19.101 183.871 22.659 103.265 103.265zM419.635 114.992L114.992 419.635C199.796 492.898 328.129 489.34 408.735 408.735C489.357 328.1140000000001 492.884 199.778 419.635 114.992z" />
    <glyph glyph-name="barcode"
      unicode="&#xF02A;"
      horiz-adv-x="512" d=" M0 64V448H18V64H0zM26.857 64.273V448H36V64.273H26.857zM54 64.273V448H62.857V64.273H54zM98.857 64.273V448H107.714V64.273H98.857zM134.857 64.273V448H152.571V64.273H134.857zM179.714 64.273V448H188.571V64.273H179.714zM197.714 64.273V448H206.571V64.273H197.714zM215.714 64.273V448H224.571V64.273H215.714zM251.429 64.273V448H269.429V64.273H251.429zM296.286 64.273V448H314.286V64.273H296.286zM332.2850000000001 64.273V448H350.286V64.273H332.2850000000001zM368.286 64.273V448H386.287V64.273H368.286zM395.1430000000001 64.273V448H413.1430000000001V64.273H395.1430000000001zM440.2860000000001 64.273V448H467.143V64.273H440.2860000000001zM476.0000000000001 64.273V448H485.143V64.273H476zM494.0000000000001 64V448H512V64H494z" />
    <glyph glyph-name="bars"
      unicode="&#xF0C9;"
      horiz-adv-x="448" d=" M442 398H6A6 6 0 0 0 0 404V428A6 6 0 0 0 6 434H442A6 6 0 0 0 448 428V404A6 6 0 0 0 442 398zM442 238H6A6 6 0 0 0 0 244V268A6 6 0 0 0 6 274H442A6 6 0 0 0 448 268V244A6 6 0 0 0 442 238zM442 78H6A6 6 0 0 0 0 84V108A6 6 0 0 0 6 114H442A6 6 0 0 0 448 108V84A6 6 0 0 0 442 78z" />
    <glyph glyph-name="bath"
      unicode="&#xF2CD;"
      horiz-adv-x="512" d=" M500 256H64V408C64 430.056 81.944 448 104 448C120.819 448 135.237 437.56 141.14 422.825C122.899 398.973 123.699 365.141 143.56 342.18C139.766 338.386 139.766 332.2340000000001 143.56 328.44L152.44 319.56C156.234 315.766 162.386 315.766 166.18 319.56L256.44 409.82C260.234 413.6140000000001 260.234 419.766 256.44 423.56L247.56 432.44C243.766 436.234 237.614 436.234 233.82 432.44C215.002 448.717 188.878 452.2 166.933 442.885C154.635 464.997 131.047 480 104 480C64.299 480 32 447.701 32 408V256H12C5.373 256 0 250.627 0 244V236C0 229.373 5.373 224 12 224H32V160C32 131.57 44.362 106.031 64 88.453V44C64 37.373 69.373 32 76 32H84C90.627 32 96 37.373 96 44V69.47A95.842 95.842 0 0 1 128 64H384A95.842 95.842 0 0 1 416 69.47V44C416 37.373 421.373 32 428 32H436C442.627 32 448 37.373 448 44V88.453C467.638 106.031 480 131.57 480 160V224H500C506.627 224 512 229.373 512 236V244C512 250.627 506.627 256 500 256zM169.37 406.63C180.73 417.98 198.56 419 211.08 409.7L166.3 364.92C157 377.44 158.02 395.27 169.37 406.63zM448 160C448 124.71 419.29 96 384 96H128C92.71 96 64 124.71 64 160V224H448V160z" />
    <glyph glyph-name="battery-bolt"
      unicode="&#xF374;"
      horiz-adv-x="640" d=" M640 328V184C640 170.745 629.255 160 616 160H608V144C608 117.49 586.51 96 560 96H400.69L418.718 128H560C568.823 128 576 135.177 576 144V192H608V320H576V368C576 376.823 568.823 384 560 384H469.224C456.001 393.205 440.995 398.344 425.814 399.66L429.785 414.855C429.886 415.236 429.976 415.618 430.072 416H560C586.51 416 608 394.51 608 368V352H616C629.255 352 640 341.255 640 328zM32 144V368C32 376.823 39.177 384 48 384H143.388L146.598 416H48C21.49 416 0 394.51 0 368V144C0 117.49 21.49 96 48 96H197.734C197.768 96.133 197.797 96.267 197.831 96.4L205.541 128H48C39.177 128 32 135.177 32 144zM454.616 289.511L321.664 53.518C314.042 39.88 299.81 32 284.985 32C257.69 32 237.34 57.901 244.38 84.684L278.374 224H222.004C197.264 224 177.854 245.313 180.192 269.964L197.444 441.964C199.487 463.528 217.595 480 239.255 480H342.812C370.468 480 390.523 453.728 383.375 427.108L363.745 352H417.953C449.985 352 470.241 317.472 454.616 289.511zM417.952 320H322.306L352.416 435.2L352.443 435.304L352.471 435.407C354.171 441.738 349.3930000000001 448 342.813 448H239.255A9.96 9.96 0 0 1 229.299 438.944L229.291 438.857L229.282 438.77L212.042 266.889C211.519 261.06 216.131 255.999 222.002 255.999H319.1190000000001L275.466 77.097L275.399 76.8220000000001L275.327 76.5480000000001C273.604 69.9930000000001 278.701 64.0000000000001 284.983 64.0000000000001C287.825 64.0000000000001 291.615 65.347 293.727 69.128L293.754 69.1760000000001L293.781 69.2240000000001L426.69 305.14C430.383 311.774 425.57 320 417.952 320z" />
    <glyph glyph-name="battery-empty"
      unicode="&#xF244;"
      horiz-adv-x="640" d=" M560 384C568.823 384 576 376.823 576 368V320H608V192H576V144C576 135.177 568.823 128 560 128H48C39.177 128 32 135.177 32 144V368C32 376.823 39.177 384 48 384H560M560 416H48C21.49 416 0 394.51 0 368V144C0 117.49 21.49 96 48 96H560C586.51 96 608 117.49 608 144V160H616C629.255 160 640 170.745 640 184V328C640 341.255 629.255 352 616 352H608V368C608 394.51 586.51 416 560 416z" />
    <glyph glyph-name="battery-full"
      unicode="&#xF240;"
      horiz-adv-x="640" d=" M560 384C568.823 384 576 376.823 576 368V320H608V192H576V144C576 135.177 568.823 128 560 128H48C39.177 128 32 135.177 32 144V368C32 376.823 39.177 384 48 384H560M560 416H48C21.49 416 0 394.51 0 368V144C0 117.49 21.49 96 48 96H560C586.51 96 608 117.49 608 144V160H616C629.255 160 640 170.745 640 184V328C640 341.255 629.255 352 616 352H608V368C608 394.51 586.51 416 560 416zM128 198V314A6 6 0 0 1 122 320H102A6 6 0 0 1 96 314V198A6 6 0 0 1 102 192H122A6 6 0 0 1 128 198zM192 198V314A6 6 0 0 1 186 320H166A6 6 0 0 1 160 314V198A6 6 0 0 1 166 192H186A6 6 0 0 1 192 198zM256 198V314A6 6 0 0 1 250 320H230A6 6 0 0 1 224 314V198A6 6 0 0 1 230 192H250A6 6 0 0 1 256 198zM320 198V314A6 6 0 0 1 314 320H294A6 6 0 0 1 288 314V198A6 6 0 0 1 294 192H314A6 6 0 0 1 320 198zM384 198V314A6 6 0 0 1 378 320H358A6 6 0 0 1 352 314V198A6 6 0 0 1 358 192H378A6 6 0 0 1 384 198zM448 198V314A6 6 0 0 1 442 320H422A6 6 0 0 1 416 314V198A6 6 0 0 1 422 192H442A6 6 0 0 1 448 198zM512 198V314A6 6 0 0 1 506 320H486A6 6 0 0 1 480 314V198A6 6 0 0 1 486 192H506A6 6 0 0 1 512 198z" />
    <glyph glyph-name="battery-half"
      unicode="&#xF242;"
      horiz-adv-x="640" d=" M560 384C568.823 384 576 376.823 576 368V320H608V192H576V144C576 135.177 568.823 128 560 128H48C39.177 128 32 135.177 32 144V368C32 376.823 39.177 384 48 384H560M560 416H48C21.49 416 0 394.51 0 368V144C0 117.49 21.49 96 48 96H560C586.51 96 608 117.49 608 144V160H616C629.255 160 640 170.745 640 184V328C640 341.255 629.255 352 616 352H608V368C608 394.51 586.51 416 560 416zM128 198V314A6 6 0 0 1 122 320H102A6 6 0 0 1 96 314V198A6 6 0 0 1 102 192H122A6 6 0 0 1 128 198zM192 198V314A6 6 0 0 1 186 320H166A6 6 0 0 1 160 314V198A6 6 0 0 1 166 192H186A6 6 0 0 1 192 198zM256 198V314A6 6 0 0 1 250 320H230A6 6 0 0 1 224 314V198A6 6 0 0 1 230 192H250A6 6 0 0 1 256 198zM320 198V314A6 6 0 0 1 314 320H294A6 6 0 0 1 288 314V198A6 6 0 0 1 294 192H314A6 6 0 0 1 320 198z" />
    <glyph glyph-name="battery-quarter"
      unicode="&#xF243;"
      horiz-adv-x="640" d=" M560 384C568.823 384 576 376.823 576 368V320H608V192H576V144C576 135.177 568.823 128 560 128H48C39.177 128 32 135.177 32 144V368C32 376.823 39.177 384 48 384H560M560 416H48C21.49 416 0 394.51 0 368V144C0 117.49 21.49 96 48 96H560C586.51 96 608 117.49 608 144V160H616C629.255 160 640 170.745 640 184V328C640 341.255 629.255 352 616 352H608V368C608 394.51 586.51 416 560 416zM128 198V314A6 6 0 0 1 122 320H102A6 6 0 0 1 96 314V198A6 6 0 0 1 102 192H122A6 6 0 0 1 128 198zM192 198V314A6 6 0 0 1 186 320H166A6 6 0 0 1 160 314V198A6 6 0 0 1 166 192H186A6 6 0 0 1 192 198z" />
    <glyph glyph-name="battery-slash"
      unicode="&#xF375;"
      horiz-adv-x="640" d=" M333.525 128L356.525 96H48C21.49 96 0 117.49 0 144V368C0 394.51 21.49 416 48 416H126.525L149.525 384H48C39.178 384 32 376.823 32 368V144C32 135.177 39.178 128 48 128H333.525zM640 328V184C640 170.745 629.255 160 616 160H608V144C608 117.49 586.51 96 560 96H454.363L506.579 23.352C510.449 17.968 509.221 10.468 503.838 6.598L497.798 2.2569999999999A11.95 11.95 0 0 0 490.802 0A11.988 11.988 0 0 0 481.044 4.999L133.421 488.648C129.551 494.032 130.779 501.532 136.162 505.402L142.202 509.743A11.95 11.95 0 0 0 149.198 512C152.932 512 156.611 510.264 158.956 507.001L224.363 416H560C586.51 416 608 394.51 608 368V352H616C629.255 352 640 341.255 640 328zM608 320H576V368C576 376.823 568.822 384 560 384H247.363L431.363 128H560C568.822 128 576 135.177 576 144V192H608V320z" />
    <glyph glyph-name="battery-three-quarters"
      unicode="&#xF241;"
      horiz-adv-x="640" d=" M560 384C568.823 384 576 376.823 576 368V320H608V192H576V144C576 135.177 568.823 128 560 128H48C39.177 128 32 135.177 32 144V368C32 376.823 39.177 384 48 384H560M560 416H48C21.49 416 0 394.51 0 368V144C0 117.49 21.49 96 48 96H560C586.51 96 608 117.49 608 144V160H616C629.255 160 640 170.745 640 184V328C640 341.255 629.255 352 616 352H608V368C608 394.51 586.51 416 560 416zM128 198V314A6 6 0 0 1 122 320H102A6 6 0 0 1 96 314V198A6 6 0 0 1 102 192H122A6 6 0 0 1 128 198zM192 198V314A6 6 0 0 1 186 320H166A6 6 0 0 1 160 314V198A6 6 0 0 1 166 192H186A6 6 0 0 1 192 198zM256 198V314A6 6 0 0 1 250 320H230A6 6 0 0 1 224 314V198A6 6 0 0 1 230 192H250A6 6 0 0 1 256 198zM320 198V314A6 6 0 0 1 314 320H294A6 6 0 0 1 288 314V198A6 6 0 0 1 294 192H314A6 6 0 0 1 320 198zM384 198V314A6 6 0 0 1 378 320H358A6 6 0 0 1 352 314V198A6 6 0 0 1 358 192H378A6 6 0 0 1 384 198zM448 198V314A6 6 0 0 1 442 320H422A6 6 0 0 1 416 314V198A6 6 0 0 1 422 192H442A6 6 0 0 1 448 198z" />
    <glyph glyph-name="bed"
      unicode="&#xF236;"
      horiz-adv-x="576" d=" M32 436V192H564C570.627 192 576 186.627 576 180V64H544V160H32V64H0V436C0 442.627 5.373 448 12 448H20C26.627 448 32 442.627 32 436zM64 320C64 373.019 106.981 416 160 416S256 373.019 256 320S213.019 224 160 224S64 266.981 64 320zM96 320C96 284.7100000000001 124.71 256 160 256S224 284.7100000000001 224 320S195.29 384 160 384S96 355.29 96 320zM576 288V224H288V360C288 373.255 298.745 384 312 384H480C533.019 384 576 341.019 576 288zM544 288C544 323.29 515.29 352 480 352H320V256H544V288z" />
    <glyph glyph-name="beer"
      unicode="&#xF0FC;"
      horiz-adv-x="448" d=" M384 416H352V432C352 458.51 330.51 480 304 480H48C21.49 480 0 458.51 0 432V80C0 53.49 21.49 32 48 32H304C330.51 32 352 53.49 352 80V102.112L412.621 132.423C434.443 143.334 448 165.269 448 189.666V352C448 387.29 419.29 416 384 416zM320 80C320 71.178 312.822 64 304 64H48C39.178 64 32 71.178 32 80V432C32 440.822 39.178 448 48 448H304C312.822 448 320 440.822 320 432V80zM416 189.666C416 177.467 409.222 166.5 398.311 161.044L352 137.888V384H384C401.645 384 416 369.645 416 352V189.666zM192 368V144C192 135.163 184.836 128 176 128S160 135.163 160 144V368C160 376.837 167.164 384 176 384S192 376.837 192 368zM128 368V144C128 135.163 120.836 128 112 128S96 135.163 96 144V368C96 376.837 103.164 384 112 384S128 376.837 128 368zM256 368V144C256 135.163 248.837 128 240 128S224 135.163 224 144V368C224 376.837 231.163 384 240 384S256 376.837 256 368z" />
    <glyph glyph-name="bell-slash"
      unicode="&#xF1F6;"
      horiz-adv-x="576" d=" M112.048 96C97.825 96 90.717 113.296 100.734 123.314C133.335 155.9140000000001 156.802 192.161 159.696 284.146L128.204 312.039A163.61 163.61 0 0 1 128 304C128 195.882 100.357 168.191 78.107 145.941C47.958 115.792 69.325 64 112.048 64H224C224 28.71 252.71 0 288 0S352 28.71 352 64H408.249L372.12 96H112.048zM288 32C270.355 32 256 46.355 256 64H320C320 46.355 305.645 32 288 32zM571.923 27.074L504.542 86.495C515.51 104.163 515.23 128.596 497.884 145.942C475.634 168.191 448 195.882 448 304C448 383.394 390.169 449.269 314.337 461.83A31.845000000000002 31.845000000000002 0 0 1 320 480C320 497.673 305.673 512 288 512S256 497.673 256 480C256 473.25 258.0950000000001 466.992 261.663 461.83C217.739 454.554 179.873 429.379 155.77 394.063L25.467 508.972C20.465 513.382 12.819 512.921 8.389 507.941L3.042 501.93C-1.388 496.95 -0.924 489.338 4.077 484.927L550.533 3.029C555.535 -1.3819999999999 563.181 -0.92 567.611 4.06L572.959 10.071C577.3879999999999 15.05 576.925 22.663 571.923 27.074zM288 432C358.74 432 416 374.751 416 304C416 197.581 440.206 158.365 475.257 123.314C479.509 119.062 480.673 113.526 479.531 108.551L179.987 372.706C202.695 408.358 242.551 432 288 432z" />
    <glyph glyph-name="bell"
      unicode="&#xF0F3;"
      horiz-adv-x="448" d=" M433.884 145.941C411.634 168.191 384 195.882 384 304C384 383.394 326.169 449.269 250.337 461.83A31.845000000000002 31.845000000000002 0 0 1 256 480C256 497.673 241.673 512 224 512S192 497.673 192 480C192 473.25 194.095 466.992 197.663 461.83C121.831 449.269 64 383.394 64 304C64 195.882 36.357 168.191 14.107 145.941C-16.042 115.792 5.325 64 48.048 64H160C160 28.71 188.71 0 224 0S288 28.71 288 64H399.943C442.581 64 464.094 115.731 433.884 145.941zM224 32C206.355 32 192 46.355 192 64H256C256 46.355 241.645 32 224 32zM399.943 96H48.048C33.825 96 26.717 113.296 36.734 123.314C71.585 158.164 96 197.175 96 304C96 374.741 153.249 432 224 432C294.74 432 352 374.751 352 304C352 197.581 376.206 158.365 411.257 123.314C421.314 113.256 414.11 96 399.943 96z" />
    <glyph glyph-name="birthday-cake"
      unicode="&#xF1FD;"
      horiz-adv-x="448" d=" M96 416C78.25 416 64 430.25 64 448C64 479 96 471 96 512C108 512 128 482.5 128 456S113.75 416 96 416zM224 416C206.25 416 192 430.25 192 448C192 479 224 471 224 512C236 512 256 482.5 256 456S241.75 416 224 416zM352 416C334.25 416 320 430.25 320 448C320 479 352 471 352 512C364 512 384 482.5 384 456S369.75 416 352 416zM400 256H368V400H336V256H240V400H208V256H112V400H80V256H48C21.5 256 0 234.5 0 208V0H448V208C448 234.5 426.5 256 400 256zM416 32H32V104.043C48.222 113.522 55.928 128 74.75 128C102.701 128 106.003 96 149.5 96C192.343 96 196.717 128 224 128C252.148 128 255.201 96 298.75 96C342.107 96 345.517 128 373.5 128C391.988 128 399.745 113.525 416 104.045V32zM416 144.374C406.374 152.248 394.783 160 373.5 160C330.07 160 326.675 128 298.75 128C271.055 128 267.296 160 224 160C181.158 160 176.782 128 149.5 128C121.352 128 118.298 160 74.75 160C53.287 160 41.649 152.226 32 144.342V208C32 216.822 39.178 224 48 224H400C408.822 224 416 216.822 416 208V144.374z" />
    <glyph glyph-name="bold"
      unicode="&#xF032;"
      horiz-adv-x="320" d=" M249.139 269.872C283.0610000000001 288.86 302.3590000000001 323.375 302.3590000000001 365.62C302.3590000000001 408.041 282.86 446.333 252.6940000000001 463.17C232.561 474.495 207.478 480 176.01 480H12C5.373 480 0 474.627 0 468V460C0 453.373 5.373 448 12 448H31.95V64H12C5.373 64 0 58.627 0 52V44C0 37.373 5.373 32 12 32H181.68C201.614 32 227.302 33.177 249.173 42.348C292.198 60.219 320 105.753 320 158.35C320 210.846 291.804 254.7220000000001 249.139 269.872zM66.041 447.799H176.01C200.939 447.799 219.704 443.646 233.367 435.107C254.747 421.668 267.009 396.57 267.009 366.249C267.009 316.718 234.7440000000001 283.439 186.72 283.439H66.041V447.799zM233.235 72.114C220.65 66.7890000000001 203.786 64.2000000000001 181.68 64.2000000000001H66.041V251.24H190.499C246.813 251.24 284.65 213.403 284.65 157.089C284.65 116.881 265.45 85.123 233.235 72.114z" />
    <glyph glyph-name="bolt"
      unicode="&#xF0E7;"
      horiz-adv-x="320" d=" M186.071 480C196.586 480 204.251 470.009 201.524 459.851L168.268 336H271.9460000000001C284.122 336 291.85 322.819 285.911 312.1910000000001L133.967 40.202A16.033 16.033 0 0 0 119.983 32C109.837 32 101.796 41.689 104.526 52.074L153.926 240H48.004C38.595 240 31.185 248.12 32.076 257.511L51.792 465.51A15.934 15.934 0 0 0 67.72 480H186.071M186.071 512H67.72C42.965 512 22.271 493.175 19.934 468.531L0.218 260.531C-2.453 232.358 19.729 208 48.004 208H112.427L73.577 60.21C65.531 29.602 88.788 0 119.983 0C136.926 0 153.192 9.005 161.902 24.592L313.847 296.585C331.704 328.539 308.555 368 271.945 368H209.994L232.429 451.552C240.598 481.974 217.678 512 186.071 512z" />
    <glyph glyph-name="bomb"
      unicode="&#xF1E2;"
      horiz-adv-x="512" d=" M420.7 443.3L364.7 387.3L326.6 425.4C314.1 437.9 293.8 437.9 281.3 425.4L264.2 408.3C246.3 413.3 227.3999999999999 416 207.8999999999999 416C96 416 3.3 326.1 0.1 214.2C-3.3 96.5 91.1 0 208 0C323.1 0 416 94.2 416 208C416 227.5 413.3 246.4 408.3 264.3L425.4000000000001 281.4C437.9000000000001 293.9 437.9000000000001 314.2 425.4000000000001 326.7L387.3 364.8L443.3 420.8L420.7 443.3zM372.4 273.7C378.2 253.2 384 235.9 384 208C384 111.8 305.5 32 208 32C183.8 32 160.3 36.8 138.3 46.3C73.1 74.5 29.9 139.7000000000001 32.1 213.3C34.8 307.9 113.2 384 208 384C235.9 384 253.1 378.2 273.7 372.4L304 402.7L402.7 304S400.9 302.1 372.4 273.7zM512 440C512 433.4 506.6 428 500 428H476C469.4 428 464 433.4 464 440S469.4 452 476 452H500C506.6 452 512 446.6 512 440zM452 500V476C452 469.4 446.6 464 440 464S428 469.4 428 476V500C428 506.6 433.4 512 440 512S452 506.6 452 500zM457 457C452.3 461.7 452.3 469.3 457 474L474 491C478.7 495.7 486.3 495.7 491 491C495.7 486.3 495.7 478.7 491 474L474 457C469.3 452.3 461.7 452.3 457 457zM389.1 473.9C384.4000000000001 478.6 384.4000000000001 486.2 389.1 490.9C393.8 495.6 401.4000000000001 495.6 406.1 490.9L423.1 473.9C427.8 469.2 427.8 461.6 423.1 456.9C418.4000000000001 452.2 410.8 452.2 406.1 456.9L389.1 473.9zM490.9 406.1C495.6 401.4 495.6 393.8 490.9 389.1C486.2 384.4 478.6 384.4 473.9 389.1L456.9 406.1C452.2 410.8 452.2 418.4 456.9 423.1C461.6 427.8 469.2 427.8 473.9 423.1L490.9 406.1zM192 320C192 311.2 184.8 304 176 304C140.7 304 112 275.3 112 240C112 231.2 104.8 224 96 224S80 231.2 80 240C80 292.9 123.1 336 176 336C184.8 336 192 328.8 192 320z" />
    <glyph glyph-name="book"
      unicode="&#xF02D;"
      horiz-adv-x="448" d=" M356 352H188C181.4 352 176 357.4 176 364V372C176 378.6 181.4 384 188 384H356C362.6 384 368 378.6 368 372V364C368 357.4 362.6 352 356 352zM368 300V308C368 314.6 362.6 320 356 320H188C181.4 320 176 314.6 176 308V300C176 293.4 181.4 288 188 288H356C362.6 288 368 293.4 368 300zM432.7 32H436C442.6 32 448 26.6 448 20V12C448 5.4 442.6 0 436 0H80C35.8 0 0 35.8 0 80V432C0 476.2 35.8 512 80 512H424C437.3 512 448 501.3 448 488V120C448 110 441.8 101.4 433.1 97.8C429.5 81.7 428.7000000000001 52.2 432.7000000000001 32zM128 128H416V480H128V128zM32 112C45.4 122 62 128 80 128H96V480H80C53.5 480 32 458.5 32 432V112zM404.3 32C401.2 52.4 401.4000000000001 77.2 404.3 96H80C16 96 16 32 80 32H404.3z" />
    <glyph glyph-name="bookmark"
      unicode="&#xF02E;"
      horiz-adv-x="384" d=" M336 512H48C21.49 512 0 490.51 0 464V0L192 112L384 0V464C384 490.51 362.51 512 336 512zM352 55.713L192 149.0460000000001L32 55.7130000000001V464C32 472.822 39.178 480 48 480H336C344.822 480 352 472.822 352 464V55.713z" />
    <glyph glyph-name="briefcase"
      unicode="&#xF0B1;"
      horiz-adv-x="512" d=" M464 416H352V456C352 469.255 341.255 480 328 480H184C170.745 480 160 469.255 160 456V416H48C21.49 416 0 394.51 0 368V80C0 53.49 21.49 32 48 32H464C490.51 32 512 53.49 512 80V368C512 394.51 490.51 416 464 416zM192 448H320V416H192V448zM480 80C480 71.178 472.822 64 464 64H48C39.178 64 32 71.178 32 80V224H192V184C192 170.745 202.745 160 216 160H296C309.255 160 320 170.745 320 184V224H480V80zM224 224H288V192H224V224zM32 256V368C32 376.822 39.178 384 48 384H464C472.822 384 480 376.822 480 368V256H32z" />
    <glyph glyph-name="building"
      unicode="&#xF1AD;"
      horiz-adv-x="448" d=" M192 405V365C192 358.373 186.627 353 180 353H140C133.373 353 128 358.373 128 365V405C128 411.627 133.373 417 140 417H180C186.627 417 192 411.627 192 405zM308 417H268C261.373 417 256 411.627 256 405V365C256 358.373 261.373 353 268 353H308C314.627 353 320 358.373 320 365V405C320 411.627 314.627 417 308 417zM180 321H140C133.373 321 128 315.627 128 309V269C128 262.373 133.373 257 140 257H180C186.627 257 192 262.373 192 269V309C192 315.627 186.627 321 180 321zM308 321H268C261.373 321 256 315.627 256 309V269C256 262.373 261.373 257 268 257H308C314.627 257 320 262.373 320 269V309C320 315.627 314.627 321 308 321zM180 225H140C133.373 225 128 219.627 128 213V173C128 166.373 133.373 161 140 161H180C186.627 161 192 166.373 192 173V213C192 219.627 186.627 225 180 225zM308 225H268C261.373 225 256 219.627 256 213V173C256 166.373 261.373 161 268 161H308C314.627 161 320 166.373 320 173V213C320 219.627 314.627 225 308 225zM448 20V0H0V20C0 26.627 5.373 32 12 32H32V488C32 501.255 42.745 512 56 512H392C405.255 512 416 501.255 416 488V32H436C442.627 32 448 26.627 448 20zM384 32V480H64V32H192V117C192 123.627 197.373 129 204 129H244C250.627 129 256 123.627 256 117V32H384z" />
    <glyph glyph-name="bullhorn"
      unicode="&#xF0A1;"
      horiz-adv-x="576" d=" M544 320V480C544 497.7 529.7 512 512 512C447 456 338 384 208 384H48C21.5 384 0 362.5 0 336V240C0 213.5 21.5 192 48 192H64.8C59.5 133.4 79.8 85 93.7 40.4C95.2 35.4 98 30.9 101.7 27.2C119 9.9 142.8 0 167 0C198.8 0 227.9 17 242.5 47.7C249.5 62.4 244.4 80 230.6 88.6C202.7 105.9999999999999 198.6 111.1 203.8 120.1C210.7 132.2 209 147.4 199.6 157.7C194.3 163.5 198.3 185.1 210.6 192C339.5 191.1 447.5 119.6 512.1 64C529.8000000000001 64 544.1 78.3 544.1 96V256C561.8000000000001 256 576.1 270.3 576.1 288S561.7 320 544 320zM213.7 61.5C196.3 24.8 150.2 24.1 124.3 49.9C110.5 94.4 91.4 139.1 97 192H170.7C162.4 172.8 163.1 149.9 176 136C156.1 101.3 184 80 213.7 61.5zM32 240V336C32 344.8 39.2 352 48 352H224V224H48C39.2 224 32 231.2 32 240zM512 105.6C475.4 134.7000000000001 437.3 159 398.3 177.8C351 200.7 303.3 215.2 256 221V355C303.3 360.9 351 375.3 398.3 398.2C437.2 417.1 475.4 441.3 512 470.4V105.6z" />
    <glyph glyph-name="bullseye"
      unicode="&#xF140;"
      horiz-adv-x="512" d=" M256 472C374.663 472 472 375.945 472 256C472 137.337 375.945 40 256 40C137.337 40 40 136.055 40 256C40 374.663 136.055 472 256 472M256 504C119.033 504 8 392.967 8 256S119.033 8 256 8S504 119.033 504 256S392.967 504 256 504zM256 376C322.319 376 376 322.33 376 256C376 189.681 322.33 136 256 136C189.681 136 136 189.67 136 256C136 322.319 189.67 376 256 376M256 408C172.053 408 104 339.947 104 256S172.053 104 256 104S408 172.053 408 256S339.947 408 256 408zM256 312C225.072 312 200 286.928 200 256S225.072 200 256 200S312 225.072 312 256S286.928 312 256 312z" />
    <glyph glyph-name="calculator"
      unicode="&#xF1EC;"
      horiz-adv-x="384" d=" M336 512H48C21.49 512 0 490.51 0 464V48C0 21.49 21.49 0 48 0H336C362.51 0 384 21.49 384 48V464C384 490.51 362.51 512 336 512zM48 480H336C344.822 480 352 472.822 352 464V384H32V464C32 472.822 39.178 480 48 480zM336 32H48C39.178 32 32 39.178 32 48V352H352V48C352 39.178 344.822 32 336 32zM128 308V268C128 261.373 122.627 256 116 256H76C69.373 256 64 261.373 64 268V308C64 314.627 69.373 320 76 320H116C122.627 320 128 314.627 128 308zM224 308V268C224 261.373 218.627 256 212 256H172C165.373 256 160 261.373 160 268V308C160 314.627 165.373 320 172 320H212C218.627 320 224 314.627 224 308zM320 308V268C320 261.373 314.627 256 308 256H268C261.373 256 256 261.373 256 268V308C256 314.627 261.373 320 268 320H308C314.627 320 320 314.627 320 308zM128 212V172C128 165.373 122.627 160 116 160H76C69.373 160 64 165.373 64 172V212C64 218.627 69.373 224 76 224H116C122.627 224 128 218.627 128 212zM224 212V172C224 165.373 218.627 160 212 160H172C165.373 160 160 165.373 160 172V212C160 218.627 165.373 224 172 224H212C218.627 224 224 218.627 224 212zM320 212V76C320 69.373 314.627 64 308 64H268C261.373 64 256 69.373 256 76V212C256 218.627 261.373 224 268 224H308C314.627 224 320 218.627 320 212zM128 116V76C128 69.373 122.627 64 116 64H76C69.373 64 64 69.373 64 76V116C64 122.627 69.373 128 76 128H116C122.627 128 128 122.627 128 116zM224 116V76C224 69.373 218.627 64 212 64H172C165.373 64 160 69.373 160 76V116C160 122.627 165.373 128 172 128H212C218.627 128 224 122.627 224 116z" />
    <glyph glyph-name="calendar-alt"
      unicode="&#xF073;"
      horiz-adv-x="448" d=" M400 448H352V500C352 506.6 346.6 512 340 512H332C325.4 512 320 506.6 320 500V448H128V500C128 506.6 122.6 512 116 512H108C101.4 512 96 506.6 96 500V448H48C21.5 448 0 426.5 0 400V48C0 21.5 21.5 0 48 0H400C426.5 0 448 21.5 448 48V400C448 426.5 426.5 448 400 448zM48 416H400C408.8 416 416 408.8 416 400V352H32V400C32 408.8 39.2 416 48 416zM400 32H48C39.2 32 32 39.2 32 48V320H416V48C416 39.2 408.8 32 400 32zM148 192H108C101.4 192 96 197.4 96 204V244C96 250.6 101.4 256 108 256H148C154.6 256 160 250.6 160 244V204C160 197.4 154.6 192 148 192zM244 192H204C197.4 192 192 197.4 192 204V244C192 250.6 197.4 256 204 256H244C250.6 256 256 250.6 256 244V204C256 197.4 250.6 192 244 192zM340 192H300C293.4 192 288 197.4 288 204V244C288 250.6 293.4 256 300 256H340C346.6 256 352 250.6 352 244V204C352 197.4 346.6 192 340 192zM244 96H204C197.4 96 192 101.4 192 108V148C192 154.6 197.4 160 204 160H244C250.6 160 256 154.6 256 148V108C256 101.4 250.6 96 244 96zM148 96H108C101.4 96 96 101.4 96 108V148C96 154.6 101.4 160 108 160H148C154.6 160 160 154.6 160 148V108C160 101.4 154.6 96 148 96zM340 96H300C293.4 96 288 101.4 288 108V148C288 154.6 293.4 160 300 160H340C346.6 160 352 154.6 352 148V108C352 101.4 346.6 96 340 96z" />
    <glyph glyph-name="calendar-check"
      unicode="&#xF274;"
      horiz-adv-x="448" d=" M400 448H352V500C352 506.627 346.627 512 340 512H332C325.373 512 320 506.627 320 500V448H128V500C128 506.627 122.627 512 116 512H108C101.373 512 96 506.627 96 500V448H48C21.49 448 0 426.51 0 400V48C0 21.49 21.49 0 48 0H400C426.51 0 448 21.49 448 48V400C448 426.51 426.51 448 400 448zM48 416H400C408.822 416 416 408.822 416 400V352H32V400C32 408.822 39.178 416 48 416zM400 32H48C39.178 32 32 39.178 32 48V320H416V48C416 39.178 408.822 32 400 32zM333.533 226.937L198.742 93.227C194.042 88.564 186.454 88.585 181.779 93.273L114.421 160.825C109.738 165.522 109.749 173.126 114.445 177.81L122.95 186.29C127.647 190.973 135.251 190.9620000000001 139.934 186.266L190.376 135.679L308.158 252.516C312.867 257.187 320.471 257.1570000000001 325.1430000000001 252.4480000000001L333.6010000000001 243.9210000000001C338.2730000000001 239.2120000000001 338.2420000000001 231.6080000000001 333.5330000000001 226.9370000000001z" />
    <glyph glyph-name="calendar-edit"
      unicode="&#xF333;"
      horiz-adv-x="448" d=" M400 448H352V500C352 506.6 346.6 512 340 512H332C325.4 512 320 506.6 320 500V448H128V500C128 506.6 122.6 512 116 512H108C101.4 512 96 506.6 96 500V448H48C21.5 448 0 426.5 0 400V48C0 21.5 21.5 0 48 0H400C426.5 0 448 21.5 448 48V400C448 426.5 426.5 448 400 448zM48 416H400C408.8 416 416 408.8 416 400V352H32V400C32 408.8 39.2 416 48 416zM400 32H48C39.2 32 32 39.2 32 48V320H416V48C416 39.2 408.8 32 400 32zM255.7 242.3L290.3 207.7C292.4000000000001 205.6 292.4000000000001 202.3 290.3 200.3L159.1 69.1L124 64.1C117.1 63.1 111.1 69 112.1 76L117.1 111.1L248.3 242.3C250.3 244.3 253.7 244.3 255.7 242.3zM330.9 240.9000000000001L311.7 221.7000000000001C309.6 219.6 306.3 219.6 304.3 221.7000000000001L269.7 256.3000000000001C267.6 258.4000000000001 267.6 261.7000000000001 269.7 263.7000000000001L288.9 282.9000000000001C295.7 289.7000000000001 306.8 289.7000000000001 313.6 282.9000000000001L330.9 265.6C337.7 258.8 337.7 247.7000000000001 330.9 240.9000000000001z" />
    <glyph glyph-name="calendar-exclamation"
      unicode="&#xF334;"
      horiz-adv-x="448" d=" M400 448H352V500C352 506.6 346.6 512 340 512H332C325.4 512 320 506.6 320 500V448H128V500C128 506.6 122.6 512 116 512H108C101.4 512 96 506.6 96 500V448H48C21.5 448 0 426.5 0 400V48C0 21.5 21.5 0 48 0H400C426.5 0 448 21.5 448 48V400C448 426.5 426.5 448 400 448zM48 416H400C408.8 416 416 408.8 416 400V352H32V400C32 408.8 39.2 416 48 416zM400 32H48C39.2 32 32 39.2 32 48V320H416V48C416 39.2 408.8 32 400 32zM212.7 288H235.3C242.2 288 247.7 282.2 247.3 275.3L240.6 155.3C240.2 148.9 235 144 228.6 144H219.3C212.9 144 207.7 149 207.3 155.3L200.6 275.3C200.3 282.2000000000001 205.8 288 212.7 288zM252 96C252 80.5 239.5 68 224 68S196 80.5 196 96S208.5 124 224 124S252 111.5 252 96z" />
    <glyph glyph-name="calendar-minus"
      unicode="&#xF272;"
      horiz-adv-x="448" d=" M400 448H352V500C352 506.6 346.6 512 340 512H332C325.4 512 320 506.6 320 500V448H128V500C128 506.6 122.6 512 116 512H108C101.4 512 96 506.6 96 500V448H48C21.5 448 0 426.5 0 400V48C0 21.5 21.5 0 48 0H400C426.5 0 448 21.5 448 48V400C448 426.5 426.5 448 400 448zM48 416H400C408.8 416 416 408.8 416 400V352H32V400C32 408.8 39.2 416 48 416zM400 32H48C39.2 32 32 39.2 32 48V320H416V48C416 39.2 408.8 32 400 32zM308 160H140C133.4 160 128 165.4 128 172V180C128 186.6 133.4 192 140 192H308C314.6 192 320 186.6 320 180V172C320 165.4 314.6 160 308 160z" />
    <glyph glyph-name="calendar-plus"
      unicode="&#xF271;"
      horiz-adv-x="448" d=" M320 180V172C320 165.4 314.6 160 308 160H240V92C240 85.4 234.6 80 228 80H220C213.4 80 208 85.4 208 92V160H140C133.4 160 128 165.4 128 172V180C128 186.6 133.4 192 140 192H208V260C208 266.6 213.4 272 220 272H228C234.6 272 240 266.6 240 260V192H308C314.6 192 320 186.6 320 180zM448 400V48C448 21.5 426.5 0 400 0H48C21.5 0 0 21.5 0 48V400C0 426.5 21.5 448 48 448H96V500C96 506.6 101.4 512 108 512H116C122.6 512 128 506.6 128 500V448H320V500C320 506.6 325.4 512 332 512H340C346.6 512 352 506.6 352 500V448H400C426.5 448 448 426.5 448 400zM32 400V352H416V400C416 408.8 408.8 416 400 416H48C39.2 416 32 408.8 32 400zM416 48V320H32V48C32 39.2 39.2 32 48 32H400C408.8 32 416 39.2 416 48z" />
    <glyph glyph-name="calendar-times"
      unicode="&#xF273;"
      horiz-adv-x="448" d=" M400 448H352V500C352 506.6 346.6 512 340 512H332C325.4 512 320 506.6 320 500V448H128V500C128 506.6 122.6 512 116 512H108C101.4 512 96 506.6 96 500V448H48C21.5 448 0 426.5 0 400V48C0 21.5 21.5 0 48 0H400C426.5 0 448 21.5 448 48V400C448 426.5 426.5 448 400 448zM48 416H400C408.8 416 416 408.8 416 400V352H32V400C32 408.8 39.2 416 48 416zM400 32H48C39.2 32 32 39.2 32 48V320H416V48C416 39.2 408.8 32 400 32zM294.7 127.9C299.4 123.2 299.4 115.6 294.7 110.9L289 105.2C284.3 100.5 276.7 100.5 272 105.2L224 153.4L175.9 105.3C171.2 100.6 163.6 100.6 158.9 105.3L153.2 110.9999999999999C148.5 115.6999999999999 148.5 123.3 153.2 128L201.3 176.1L153.2 224.2C148.5 228.9 148.5 236.5 153.2 241.2L158.9 246.9C163.6 251.6 171.2 251.6 175.9 246.9L224 198.8L272.1 246.9C276.8 251.6 284.4000000000001 251.6 289.1 246.9L294.8 241.2C299.5 236.5 299.5 228.9 294.8 224.2L246.6 176L294.7 127.9z" />
    <glyph glyph-name="calendar"
      unicode="&#xF133;"
      horiz-adv-x="448" d=" M400 448H352V500C352 506.627 346.627 512 340 512H332C325.373 512 320 506.627 320 500V448H128V500C128 506.627 122.627 512 116 512H108C101.373 512 96 506.627 96 500V448H48C21.49 448 0 426.51 0 400V48C0 21.49 21.49 0 48 0H400C426.51 0 448 21.49 448 48V400C448 426.51 426.51 448 400 448zM48 416H400C408.822 416 416 408.822 416 400V352H32V400C32 408.822 39.178 416 48 416zM400 32H48C39.178 32 32 39.178 32 48V320H416V48C416 39.178 408.822 32 400 32z" />
    <glyph glyph-name="camera-alt"
      unicode="&#xF332;"
      horiz-adv-x="512" d=" M256 104C189.8 104 136 157.8 136 224S189.8 344 256 344S376 290.2 376 224S322.2 104 256 104zM256 312C207.5 312 168 272.5 168 224S207.5 136 256 136S344 175.5 344 224S304.5 312 256 312zM224 224C224 241.6 238.4 256 256 256C264.8 256 272 263.2 272 272S264.8 288 256 288C220.7 288 192 259.3 192 224C192 215.2 199.2 208 208 208S224 215.2 224 224zM324.3 448C327.6 448 330.6 445.9 331.8 442.8L353.9000000000001 384H464C472.8 384 480 376.8 480 368V80C480 71.2 472.8 64 464 64H48C39.2 64 32 71.2 32 80V368C32 376.8 39.2 384 48 384H158.2L178.3 437.6C180.6 443.8 186.6 448 193.3 448H324.3M324.3 480H193.3C173.3 480 155.4 467.6 148.4 448.9L136 416H48C21.5 416 0 394.5 0 368V80C0 53.5 21.5 32 48 32H464C490.5 32 512 53.5 512 80V368C512 394.5 490.5 416 464 416H376L361.7 454C355.9 469.7 341 480 324.3 480z" />
    <glyph glyph-name="camera-retro"
      unicode="&#xF083;"
      horiz-adv-x="512" d=" M32 454V474C32 477.3 34.7 480 38 480H154C157.3 480 160 477.3 160 474V454C160 450.7 157.3 448 154 448H38C34.7 448 32 450.7 32 454zM376 224C376 290.2 322.2 344 256 344S136 290.2 136 224S189.8 104 256 104S376 157.8 376 224zM344 224C344 175.5 304.5 136 256 136S168 175.5 168 224S207.5 312 256 312S344 272.5 344 224zM224 224C224 241.6 238.4 256 256 256C264.8 256 272 263.2 272 272S264.8 288 256 288C220.7 288 192 259.3 192 224C192 215.2 199.2 208 208 208S224 215.2 224 224zM512 432V80C512 53.5 490.5 32 464 32H48C21.5 32 0 53.5 0 80V368C0 394.5 21.5 416 48 416H184L217.6 460.8C226.7 472.9 240.9 480 256 480H464C490.5 480 512 458.5 512 432zM224 416H464C469.6 416 475 415 480 413.3V432C480 440.8 472.8 448 464 448H256C251 448 246.2 445.6 243.2 441.6L224 416zM480 368C480 376.8 472.8 384 464 384H48C39.2 384 32 376.8 32 368V80C32 71.2 39.2 64 48 64H464C472.8 64 480 71.2 480 80V368z" />
    <glyph glyph-name="camera"
      unicode="&#xF030;"
      horiz-adv-x="512" d=" M324.3 448C327.6 448 330.6 445.9 331.8 442.8L353.9000000000001 384H464C472.8 384 480 376.8 480 368V80C480 71.2 472.8 64 464 64H48C39.2 64 32 71.2 32 80V368C32 376.8 39.2 384 48 384H158.2L178.3 437.6C180.6 443.8 186.6 448 193.3 448H324.3M324.3 480H193.3C173.3 480 155.4 467.6 148.4 448.9L136 416H48C21.5 416 0 394.5 0 368V80C0 53.5 21.5 32 48 32H464C490.5 32 512 53.5 512 80V368C512 394.5 490.5 416 464 416H376L361.7 454C355.9 469.7 341 480 324.3 480zM256 104C189.8 104 136 157.8 136 224S189.8 344 256 344S376 290.2 376 224S322.2 104 256 104zM256 312C207.5 312 168 272.5 168 224S207.5 136 256 136S344 175.5 344 224S304.5 312 256 312z" />
    <glyph glyph-name="caret-circle-down"
      unicode="&#xF32D;"
      horiz-adv-x="512" d=" M256 504C119 504 8 393 8 256S119 8 256 8S504 119 504 256S393 504 256 504zM472 256C472 137.3 375.9 40 256 40C137.3 40 40 136.1 40 256C40 374.7 136.1 472 256 472C374.7 472 472 375.9 472 256zM352 288L256 192L160 288H352M160 320C131.6 320 117.2 285.5 137.4 265.4L233.4 169.4C245.9 156.9 266.2 156.9 278.7 169.4L374.7 265.4C394.8 285.5 380.6 320 352.1 320H160z" />
    <glyph glyph-name="caret-circle-left"
      unicode="&#xF32E;"
      horiz-adv-x="512" d=" M504 256C504 393 393 504 256 504S8 393 8 256S119 8 256 8S504 119 504 256zM256 40C137.3 40 40 136.1 40 256C40 374.7 136.1 472 256 472C374.7 472 472 375.9 472 256C472 137.3 375.9 40 256 40zM288 160L192 256L288 352V160M320 352C320 380.4 285.5 394.8 265.4 374.6L169.4 278.6C156.9 266.1 156.9 245.8 169.4 233.3L265.4 137.3C285.5 117.2 320 131.4 320 159.9V352z" />
    <glyph glyph-name="caret-circle-right"
      unicode="&#xF330;"
      horiz-adv-x="512" d=" M8 256C8 119 119 8 256 8S504 119 504 256S393 504 256 504S8 393 8 256zM256 472C374.7 472 472 375.9 472 256C472 137.3 375.9 40 256 40C137.3 40 40 136.1 40 256C40 374.7 136.1 472 256 472zM224 352L320 256L224 160V352M192 160C192 131.6 226.5 117.2 246.6 137.4L342.6 233.4C355.1 245.9 355.1 266.2 342.6 278.7L246.6 374.7C226.5000000000001 394.8 192 380.6 192 352.1V160z" />
    <glyph glyph-name="caret-circle-up"
      unicode="&#xF331;"
      horiz-adv-x="512" d=" M256 8C393 8 504 119 504 256S393 504 256 504S8 393 8 256S119 8 256 8zM40 256C40 374.7 136.1 472 256 472C374.7 472 472 375.9 472 256C472 137.3 375.9 40 256 40C137.3 40 40 136.1 40 256zM160 224L256 320L352 224H160M352 192C380.4 192 394.8 226.5 374.6 246.6L278.6 342.6C266.1 355.1 245.8 355.1 233.3 342.6L137.3 246.6C117.2 226.5 131.4 192 159.9 192H352z" />
    <glyph glyph-name="caret-down"
      unicode="&#xF0D7;"
      horiz-adv-x="320" d=" M287.968 352H32.038C3.613 352 -10.729 317.512 9.411 297.373L137.373 169.373C149.869 156.877 170.131 156.876 182.628 169.373L310.596 297.373C330.695 317.472 316.45 352 287.968 352zM160 192L32 320H288L160 192z" />
    <glyph glyph-name="caret-left"
      unicode="&#xF0D9;"
      horiz-adv-x="192" d=" M192 128.032V383.962C192 412.387 157.512 426.729 137.373 406.589L9.373 278.627C-3.123 266.131 -3.124 245.869 9.373 233.372L137.373 105.4039999999999C157.472 85.305 192 99.55 192 128.032zM32 256L160 384V128L32 256z" />
    <glyph glyph-name="caret-right"
      unicode="&#xF0DA;"
      horiz-adv-x="192" d=" M0 383.968V128.038C0 99.613 34.488 85.271 54.627 105.411L182.627 233.373C195.123 245.869 195.124 266.131 182.627 278.628L54.627 406.596C34.528 426.695 0 412.45 0 383.968zM160 256L32 128V384L160 256z" />
    <glyph glyph-name="caret-square-down"
      unicode="&#xF150;"
      horiz-adv-x="448" d=" M400 480H48C21.5 480 0 458.5 0 432V80C0 53.5 21.5 32 48 32H400C426.5 32 448 53.5 448 80V432C448 458.5 426.5 480 400 480zM416 80C416 71.2 408.8 64 400 64H48C39.2 64 32 71.2 32 80V432C32 440.8 39.2 448 48 448H400C408.8 448 416 440.8 416 432V80zM320 288L224 192L128 288H320M128 320C99.6 320 85.2 285.5 105.4 265.4L201.4 169.4C213.9 156.9 234.2 156.9 246.7 169.4L342.7 265.4C362.8 285.5 348.6 320 320.1 320H128z" />
    <glyph glyph-name="caret-square-left"
      unicode="&#xF191;"
      horiz-adv-x="448" d=" M448 80V432C448 458.5 426.5 480 400 480H48C21.5 480 0 458.5 0 432V80C0 53.5 21.5 32 48 32H400C426.5 32 448 53.5 448 80zM48 64C39.2 64 32 71.2 32 80V432C32 440.8 39.2 448 48 448H400C408.8 448 416 440.8 416 432V80C416 71.2 408.8 64 400 64H48zM256 160L160 256L256 352V160M288 352C288 380.4 253.5 394.8 233.4 374.6L137.4 278.6C124.9 266.1 124.9 245.8 137.4 233.3L233.4 137.3C253.5 117.2 288 131.4 288 159.9V352z" />
    <glyph glyph-name="caret-square-right"
      unicode="&#xF152;"
      horiz-adv-x="448" d=" M0 432V80C0 53.5 21.5 32 48 32H400C426.5 32 448 53.5 448 80V432C448 458.5 426.5 480 400 480H48C21.5 480 0 458.5 0 432zM400 448C408.8 448 416 440.8 416 432V80C416 71.2 408.8 64 400 64H48C39.2 64 32 71.2 32 80V432C32 440.8 39.2 448 48 448H400zM192 352L288 256L192 160V352M160 160C160 131.6 194.5 117.2 214.6 137.4L310.6 233.4C323.1 245.9 323.1 266.2 310.6 278.7L214.6 374.7C194.5 394.8 160 380.6 160 352.1V160z" />
    <glyph glyph-name="caret-square-up"
      unicode="&#xF151;"
      horiz-adv-x="448" d=" M48 32H400C426.5 32 448 53.5 448 80V432C448 458.5 426.5 480 400 480H48C21.5 480 0 458.5 0 432V80C0 53.5 21.5 32 48 32zM32 432C32 440.8 39.2 448 48 448H400C408.8 448 416 440.8 416 432V80C416 71.2 408.8 64 400 64H48C39.2 64 32 71.2 32 80V432zM128 224L224 320L320 224H128M320 192C348.4 192 362.8 226.5 342.6 246.6L246.6 342.6C234.1 355.1 213.8 355.1 201.3 342.6L105.3 246.6C85.3 226.5 99.5 192 128 192H320z" />
    <glyph glyph-name="caret-up"
      unicode="&#xF0D8;"
      horiz-adv-x="320" d=" M32.032 160H287.962C316.387 160 330.729 194.488 310.589 214.627L182.627 342.627C170.131 355.1230000000001 149.869 355.124 137.372 342.627L9.404 214.627C-10.695 194.528 3.55 160 32.032 160zM160 320L288 192H32L160 320z" />
    <glyph glyph-name="cart-arrow-down"
      unicode="&#xF218;"
      horiz-adv-x="576" d=" M551.991 448H129.28L120.951 492.423C118.822 503.774 108.911 512 97.362 512H12C5.373 512 0 506.627 0 500V492C0 485.373 5.373 480 12 480H90.72L160.647 107.054C150.305 95.686 144 80.58 144 64C144 28.654 172.654 0 208 0S272 28.654 272 64A63.681 63.681 0 0 1 263.417 96H408.584A63.681 63.681 0 0 1 400.0009999999999 64C400.0009999999999 28.654 428.6549999999999 0 464.0009999999999 0C499.3469999999999 0 528.001 28.654 528.001 64C528.001 81.993 520.566 98.24 508.613 109.868C506.022 120.109 496.76 128 485.328 128H189.28L177.28 192H508.6609999999999C520.029 192 529.838 199.976 532.1569999999999 211.105L575.4879999999999 419.105C578.592 434.009 567.215 448 551.991 448zM240 64C240 46.355 225.645 32 208 32S176 46.355 176 64S190.355 96 208 96S240 81.645 240 64zM464 32C446.355 32 432 46.355 432 64S446.355 96 464 96S496 81.645 496 64S481.645 32 464 32zM502.156 224H171.28L135.28 416H542.156L502.1559999999999 224zM395.515 299.515L344.486 248.486C339.8 243.8 332.202 243.8 327.515 248.486L276.486 299.515C268.926 307.075 274.28 320 284.971 320H320V372C320 378.627 325.373 384 332 384H340C346.627 384 352 378.627 352 372V320H387.029C397.72 320 403.074 307.074 395.515 299.515z" />
    <glyph glyph-name="cart-plus"
      unicode="&#xF217;"
      horiz-adv-x="576" d=" M551.991 448H129.28L120.951 492.423C118.822 503.774 108.911 512 97.362 512H12C5.373 512 0 506.627 0 500V492C0 485.373 5.373 480 12 480H90.72L160.647 107.054C150.305 95.686 144 80.58 144 64C144 28.654 172.654 0 208 0S272 28.654 272 64A63.681 63.681 0 0 1 263.417 96H408.584A63.681 63.681 0 0 1 400.0009999999999 64C400.0009999999999 28.654 428.6549999999999 0 464.0009999999999 0C499.3469999999999 0 528.001 28.654 528.001 64C528.001 81.993 520.566 98.24 508.613 109.868C506.022 120.109 496.76 128 485.328 128H189.28L177.28 192H508.6609999999999C520.029 192 529.838 199.976 532.1569999999999 211.105L575.4879999999999 419.105C578.592 434.009 567.215 448 551.991 448zM464 96C481.645 96 496 81.645 496 64S481.645 32 464 32S432 46.355 432 64S446.355 96 464 96zM208 96C225.645 96 240 81.645 240 64S225.645 32 208 32S176 46.355 176 64S190.355 96 208 96zM502.156 224H171.28L135.28 416H542.156L502.1559999999999 224zM272 316V324C272 330.627 277.373 336 284 336H320V372C320 378.627 325.373 384 332 384H340C346.627 384 352 378.627 352 372V336H388C394.627 336 400 330.627 400 324V316C400 309.373 394.627 304 388 304H352V268C352 261.373 346.627 256 340 256H332C325.373 256 320 261.373 320 268V304H284C277.373 304 272 309.373 272 316z" />
    <glyph glyph-name="certificate"
      unicode="&#xF0A3;"
      horiz-adv-x="512" d=" M495.768 239.7080000000001L479.048 256.0710000000001L495.767 272.433C525.807 301.2190000000001 512.018 351.9700000000001 471.937 361.798L449.169 367.6090000000001L455.633 390.307C466.865 430.3040000000001 429.518 466.775 390.184 455.758L367.512 449.2970000000001L361.7029999999999 472.075C351.926 511.948 300.89 525.786 272.299 495.858L256 479.066L239.699 495.857C211.376 525.504 160.164 512.371 150.294 472.064L144.487 449.296L121.815 455.757C82.675 466.749 45.138 430.533 56.366 390.307L62.83 367.6090000000001L40.063 361.798C-0.018 351.971 -13.807 301.219 16.232 272.433L32.952 256.07L16.233 239.708C-13.807 210.922 -0.018 160.1709999999999 40.063 150.343L62.831 144.532L56.367 121.834C45.146 81.631 82.622 45.405 121.816 56.384L144.488 62.845L150.295 40.078C160.225 -0.5 211.16 -13.5309999999999 239.661 16.242L256 32.95L272.254 16.33C300.511 -13.57 351.808 -0.35 361.706 40.076L367.5130000000001 62.843L390.1850000000001 56.382C429.6570000000001 45.2959999999999 466.7830000000001 81.891 455.6340000000001 121.8319999999999L449.1700000000001 144.5299999999999L471.9370000000001 150.3409999999999C512.0190000000001 160.1699999999999 525.807 210.9219999999999 495.7680000000001 239.7079999999999zM464.201 181.3950000000001L409.382 167.4040000000001L424.8349999999999 113.1410000000001C429.2009999999999 97.5360000000001 414.4889999999999 82.8090000000001 398.882 87.1790000000001L344.637 102.6370000000001L330.65 47.8C326.854 31.916 306.303 26.664 295.365 38.466L256 78.716L216.634 38.465C205.583 26.7840000000001 185.234 31.5460000000001 181.349 47.799L167.363 102.636L113.118 87.178C97.515 82.81 82.798 97.532 87.165 113.14L102.618 167.403L47.799 181.394C32.066 185.156 26.473 205.336 38.468 216.6909999999999L78.705 256.07L38.468 295.4489999999999C26.479 306.7989999999999 32.061 326.9809999999999 47.799 330.7449999999999L102.618 344.7359999999999L87.165 399C82.799 414.605 97.511 429.332 113.118 424.962L167.363 409.504L181.349 464.341C185.092 480.005 205.582 485.357 216.634 473.675L256 433.127L295.366 473.675C306.545 485.491 326.949 479.827 330.651 464.341L344.637 409.504L398.882 424.962C414.485 429.33 429.202 414.608 424.8349999999999 399L409.382 344.737L464.201 330.746C479.934 326.984 485.527 306.804 473.532 295.45L433.295 256.0710000000001L473.532 216.692C485.521 205.341 479.939 185.159 464.201 181.395z" />
    <glyph glyph-name="chart-area"
      unicode="&#xF1FE;"
      horiz-adv-x="512" d=" M500 96C506.6 96 512 90.6 512 84V76C512 69.4 506.6 64 500 64H12C5.4 64 0 69.4 0 76V436C0 442.6 5.4 448 12 448H20C26.6 448 32 442.6 32 436V96H500zM372 350L288 296L201.5 380.5C196.4 385.6 188.1 385.1 183.6 379.5L64 224V128H480L389.7 344.7C386.7 351.6 378.2 354.1 372 350zM96 212.8L194.7 344.1L284 254.8L369.8 312L431.5 160H96V212.8z" />
    <glyph glyph-name="chart-bar"
      unicode="&#xF080;"
      horiz-adv-x="512" d=" M500 96C506.6 96 512 90.6 512 84V76C512 69.4 506.6 64 500 64H12C5.4 64 0 69.4 0 76V436C0 442.6 5.4 448 12 448H20C26.6 448 32 442.6 32 436V96H500zM160 166V250C160 253.3 157.3 256 154 256H134C130.7 256 128 253.3 128 250V166C128 162.7 130.7 160 134 160H154C157.3 160 160 162.7 160 166zM448 166V410C448 413.3 445.3 416 442 416H422C418.7 416 416 413.3 416 410V166C416 162.7 418.7 160 422 160H442C445.3 160 448 162.7 448 166zM352 166V314C352 317.3 349.3 320 346 320H326C322.7 320 320 317.3 320 314V166C320 162.7 322.7 160 326 160H346C349.3 160 352 162.7 352 166zM256 166V378C256 381.3 253.3 384 250 384H230C226.7 384 224 381.3 224 378V166C224 162.7 226.7 160 230 160H250C253.3 160 256 162.7 256 166z" />
    <glyph glyph-name="chart-line"
      unicode="&#xF201;"
      horiz-adv-x="512" d=" M500 96C506.6 96 512 90.6 512 84V76C512 69.4 506.6 64 500 64H12C5.4 64 0 69.4 0 76V436C0 442.6 5.4 448 12 448H20C26.6 448 32 442.6 32 436V96H500zM480 391V297C480 267.7 444.4 253 423.7 273.7L388 309.4L292.2 213.6C289.9 211.3 286.1 211.3 283.7 213.6L224.3 273L111.8 153.4C109.5 151 105.7 150.9 103.3 153.1L88.7 166.8C86.3 169.1 86.2 172.9 88.4 175.3L219.4 314.4C221.7 316.9 225.6 316.9 228 314.5L288 254.5L365.4 331.9L329.7 367.6C308.9 388.4 323.7 423.9 353 423.9H447C465.2 424 480 409.2 480 391zM451.2 391C451.2 393.3 449.4 395.1 447.1 395.1H353.1C349.4 395.1 347.6 390.6 350.2 388.1L444.2 294.1C446.8 291.5 451.2 293.3 451.2 297V391z" />
    </font>
</defs>
</svg>
