<?xml version="1.0" standalone="no"?> 
<!DOCTYPE svg PUBLIC "-//W3C//DTD SVG 1.1//EN" "http://www.w3.org/Graphics/SVG/1.1/DTD/svg11.dtd" >
<svg xmlns="http://www.w3.org/2000/svg">
<defs>
  <font id="fontawesome" horiz-adv-x="640.002">
    <font-face font-family="Font Awesome 5 Regular"
      units-per-em="512" ascent="512"
      descent="0"
      font-weight="400"
      font-style="Regular" />
    <missing-glyph horiz-adv-x="0" />
    <glyph glyph-name="address-book"
      unicode="&#xF2B9;"
      horiz-adv-x="448" d=" M320 192V120C320 106.745 309.255 96 296 96H152C138.745 96 128 106.745 128 120V192C128 213.431 142.207 232.266 162.813 238.153L180.877 243.314C193.629 236.116 208.342 232 224 232S254.371 236.116 267.122 243.314L285.1860000000001 238.153C305.793 232.266 320 213.431 320 192zM224 256C259.346 256 288 284.654 288 320S259.346 384 224 384S160 355.346 160 320S188.654 256 224 256zM416 352V288H436C442.627 288 448 282.627 448 276V236C448 229.373 442.627 224 436 224H416V160H436C442.627 160 448 154.627 448 148V108C448 101.373 442.627 96 436 96H416V48C416 21.49 394.51 0 368 0H80C53.49 0 32 21.49 32 48V464C32 490.51 53.49 512 80 512H368C394.51 512 416 490.51 416 464V416H436C442.627 416 448 410.627 448 404V364C448 357.373 442.627 352 436 352H416zM368 54V458A6 6 0 0 1 362 464H86A6 6 0 0 1 80 458V54A6 6 0 0 1 86 48H362A6 6 0 0 1 368 54z" />
    <glyph glyph-name="address-card"
      unicode="&#xF2BB;"
      horiz-adv-x="512" d=" M464 448H48C21.49 448 0 426.51 0 400V112C0 85.49 21.49 64 48 64H464C490.51 64 512 85.49 512 112V400C512 426.51 490.51 448 464 448zM458 112H54A6 6 0 0 0 48 118V394A6 6 0 0 0 54 400H458A6 6 0 0 0 464 394V118A6 6 0 0 0 458 112zM404 288H300C293.373 288 288 293.373 288 300V324C288 330.627 293.373 336 300 336H404C410.627 336 416 330.627 416 324V300C416 293.373 410.627 288 404 288zM404 208H300C293.373 208 288 213.373 288 220V244C288 250.627 293.373 256 300 256H404C410.627 256 416 250.627 416 244V220C416 213.373 410.627 208 404 208zM120 304C120 334.928 145.072 360 176 360S232 334.928 232 304S206.928 248 176 248S120 273.072 120 304zM256 214.143V172C256 165.373 250.627 160 244 160H108C101.373 160 96 165.373 96 172V214.143A24 24 0 0 0 113.104 237.1310000000001L126.568 241.17C140.186 230.432 157.351 224 176 224S211.814 230.432 225.433 241.17L238.897 237.1310000000001A24 24 0 0 0 256 214.143z" />
    <glyph glyph-name="adjust"
      unicode="&#xF042;"
      horiz-adv-x="512" d=" M256 456C366.549 456 456 366.532 456 256C456 145.451 366.532 56 256 56C145.451 56 56 145.468 56 256C56 366.549 145.468 456 256 456M256 504C119.033 504 8 392.967 8 256S119.033 8 256 8S504 119.033 504 256S392.967 504 256 504zM256 408C172.053 408 104 339.947 104 256S172.053 104 256 104V408z" />
    <glyph glyph-name="alarm-clock"
      unicode="&#xF34E;"
      horiz-adv-x="512" d=" M459.7 317.4C482 337.9 496 367.3 496 400C496 461.9 445.9 512 384 512C338.7 512 299.7 485.2 282.1 446.5C264.8 448.5 247.2 448.5 229.9000000000001 446.5C212.3 485.2 173.3 512 128 512C66.1 512 16 461.9 16 400C16 367.3 30 337.9 52.3 317.4C39.3 289 32 257.3 32 224C32 170.8 50.6 121.9 81.5 83.5L39 41C29.6 31.6 29.6 16.4 39 7.1C48.4 -2.3 63.6 -2.3 72.9 7.1L115.4 49.6C196.9 -16.1 314.1 -16.8 396.4 49.6L439 7C448.4 -2.4 463.6 -2.4 472.9 7C482.3 16.4 482.3 31.6 472.9 40.9L430.4 83.4C461.4 121.8 479.9 170.7 479.9 223.9C480 257.3 472.7 289 459.7 317.4zM384 464C419.3 464 448 435.3 448 400C448 384.9 442.7 371 434 360.1C407.8 394.3 372 420.7 330.7 435.3C342.1 452.6 361.7 464 384 464zM64 400C64 435.3 92.7 464 128 464C150.3 464 169.9 452.6 181.4 435.3C140 420.7 104.2 394.3 78.1 360.1C69.3 371 64 384.9 64 400zM256 48C158.7 48 80 126.7 80 224C80 321 158.4 400 256 400C353.4 400 432 321.2 432 224C432 126.7 353.3 48 256 48zM302.2 143.7L233.2 191.2C229.9 193.4 228 197.1 228 201.1V332C228 338.6 233.4 344 240 344H272C278.6 344 284 338.6 284 332V224.3L334 189.9C339.5 186.1 340.8 178.7000000000001 337.1 173.2000000000001L319 146.8C315.2 141.4 307.7 140 302.2 143.7z" />
    <glyph glyph-name="align-center"
      unicode="&#xF037;"
      horiz-adv-x="448" d=" M352 464V432C352 425.373 346.627 420 340 420H108C101.373 420 96 425.373 96 432V464C96 470.627 101.373 476 108 476H340C346.627 476 352 470.627 352 464zM12 292H436C442.627 292 448 297.373 448 304V336C448 342.627 442.627 348 436 348H12C5.373 348 0 342.627 0 336V304C0 297.373 5.373 292 12 292zM12 36H436C442.627 36 448 41.373 448 48V80C448 86.627 442.627 92 436 92H12C5.373 92 0 86.627 0 80V48C0 41.373 5.373 36 12 36zM340 220H108C101.373 220 96 214.627 96 208V176C96 169.373 101.373 164 108 164H340C346.627 164 352 169.373 352 176V208C352 214.627 346.627 220 340 220z" />
    <glyph glyph-name="align-justify"
      unicode="&#xF039;"
      horiz-adv-x="448" d=" M0 432V464C0 470.627 5.373 476 12 476H436C442.627 476 448 470.627 448 464V432C448 425.373 442.627 420 436 420H12C5.373 420 0 425.373 0 432zM12 292H436C442.627 292 448 297.373 448 304V336C448 342.627 442.627 348 436 348H12C5.373 348 0 342.627 0 336V304C0 297.373 5.373 292 12 292zM12 36H436C442.627 36 448 41.373 448 48V80C448 86.627 442.627 92 436 92H12C5.373 92 0 86.627 0 80V48C0 41.373 5.373 36 12 36zM12 164H436C442.627 164 448 169.373 448 176V208C448 214.627 442.627 220 436 220H12C5.373 220 0 214.627 0 208V176C0 169.373 5.373 164 12 164z" />
    <glyph glyph-name="align-left"
      unicode="&#xF036;"
      horiz-adv-x="448" d=" M288 464V432C288 425.373 282.627 420 276 420H12C5.373 420 0 425.373 0 432V464C0 470.627 5.373 476 12 476H276C282.627 476 288 470.627 288 464zM12 292H436C442.627 292 448 297.373 448 304V336C448 342.627 442.627 348 436 348H12C5.373 348 0 342.627 0 336V304C0 297.373 5.373 292 12 292zM12 36H436C442.627 36 448 41.373 448 48V80C448 86.627 442.627 92 436 92H12C5.373 92 0 86.627 0 80V48C0 41.373 5.373 36 12 36zM276 220H12C5.373 220 0 214.627 0 208V176C0 169.373 5.373 164 12 164H276C282.627 164 288 169.373 288 176V208C288 214.627 282.627 220 276 220z" />
    <glyph glyph-name="align-right"
      unicode="&#xF038;"
      horiz-adv-x="448" d=" M160 432V464C160 470.627 165.373 476 172 476H436C442.627 476 448 470.627 448 464V432C448 425.373 442.627 420 436 420H172C165.373 420 160 425.373 160 432zM12 292H436C442.627 292 448 297.373 448 304V336C448 342.627 442.627 348 436 348H12C5.373 348 0 342.627 0 336V304C0 297.373 5.373 292 12 292zM12 36H436C442.627 36 448 41.373 448 48V80C448 86.627 442.627 92 436 92H12C5.373 92 0 86.627 0 80V48C0 41.373 5.373 36 12 36zM172 164H436C442.627 164 448 169.373 448 176V208C448 214.627 442.627 220 436 220H172C165.373 220 160 214.627 160 208V176C160 169.373 165.373 164 172 164z" />
    <glyph glyph-name="ambulance"
      unicode="&#xF0F9;"
      horiz-adv-x="640" d=" M592 512H272C245.49 512 224 490.51 224 464V416H179.882A48 48 0 0 1 145.941 401.9410000000001L46.059 302.059A48 48 0 0 1 32 268.118V144H20C13.373 144 8 138.627 8 132V108C8 101.373 13.373 96 20 96H64C64 42.981 106.981 0 160 0S256 42.981 256 96H384C384 42.981 426.981 0 480 0S576 42.981 576 96H592C618.51 96 640 117.49 640 144V464C640 490.51 618.51 512 592 512zM160 48C133.533 48 112 69.533 112 96S133.533 144 160 144S208 122.467 208 96S186.467 48 160 48zM224 167.547C207.015 182.751 184.589 192 160 192C126.605 192 97.198 174.945 80 149.074V268.118L179.882 368H224V167.547zM480 48C453.533 48 432 69.533 432 96S453.533 144 480 144S528 122.467 528 96S506.467 48 480 48zM592 144H563.154C546.555 172.694 515.533 192 480 192S413.445 172.694 396.846 144H272V464H592V144zM112 256L192 336V256H112zM512 336V304C512 297.373 506.627 292 500 292H444V236C444 229.373 438.627 224 432 224H400C393.373 224 388 229.373 388 236V292H332C325.373 292 320 297.373 320 304V336C320 342.627 325.373 348 332 348H388V404C388 410.627 393.373 416 400 416H432C438.627 416 444 410.627 444 404V348H500C506.627 348 512 342.627 512 336z" />
    <glyph glyph-name="anchor"
      unicode="&#xF13D;"
      horiz-adv-x="576" d=" M571.515 180.485L504.486 247.514C499.8 252.2 492.202 252.2 487.515 247.514L420.486 180.485C412.926 172.925 418.28 160 428.971 160H473.239C453.531 94.674 380.693 55.685 312 49.135V296H372C378.627 296 384 301.373 384 308V332C384 338.627 378.627 344 372 344H312V355.668C344.456 365.863 368 396.18 368 432C368 476.183 332.183 512 288 512S208 476.183 208 432C208 396.18 231.544 365.862 264 355.668V344H204C197.373 344 192 338.627 192 332V308C192 301.373 197.373 296 204 296H264V49.135C195.192 55.696 122.424 94.824 102.762 160H147.03C157.721 160 163.075 172.926 155.515 180.485L88.486 247.514C83.8 252.2 76.202 252.2 71.515 247.514L4.485 180.485C-3.074 172.926 2.28 160 12.971 160H53.255C73.657 60.444 181.238 0 288 0C401.135 0 503.338 65.3 522.745 160H563.029C573.72 160 579.074 172.926 571.515 180.485zM288 464C305.645 464 320 449.645 320 432S305.645 400 288 400S256 414.355 256 432S270.355 464 288 464z" />
    <glyph glyph-name="angle-double-down"
      unicode="&#xF103;"
      horiz-adv-x="320" d=" M151.5 84.2L3.5 231C-1.2 235.7 -1.2 243.3 3.5 248L23.3 267.8C28 272.5 35.6 272.5 40.3 267.8L160 149.3L279.7 267.8C284.4 272.5 292 272.5 296.7 267.8L316.5 248C321.2 243.3 321.2 235.7 316.5 231L168.5 84.2C163.8 79.5 156.2 79.5 151.5 84.2zM168.5 244.2L316.5 391C321.2 395.7 321.2 403.3 316.5 408L296.7 427.8C292 432.5 284.4 432.5 279.7 427.8L160 309.3L40.3 427.8C35.6 432.5 28 432.5 23.3 427.8L3.5 408C-1.2 403.3 -1.2 395.7 3.5 391L151.5 244.2C156.2 239.5 163.8 239.5 168.5 244.2z" />
    <glyph glyph-name="angle-double-left"
      unicode="&#xF100;"
      horiz-adv-x="384" d=" M20.2 264.5L167 412.5C171.7 417.2 179.3 417.2 184 412.5L203.8 392.7C208.5 388 208.5 380.4 203.8 375.7L85.3 256L203.8 136.3C208.5 131.6 208.5 124 203.8 119.3L184 99.5C179.3 94.8 171.7 94.8 167 99.5L20.2 247.5C15.5 252.2 15.5 259.8 20.2 264.5zM180.2 247.5L327 99.5C331.7 94.8 339.3 94.8 344 99.5L363.8 119.3C368.5 124 368.5 131.6 363.8 136.3L245.3 256L363.8 375.7C368.5 380.4 368.5 388 363.8 392.7L344 412.5C339.3 417.2 331.7 417.2 327 412.5L180.2 264.5C175.5 259.8 175.5 252.2 180.2 247.5z" />
    <glyph glyph-name="angle-double-right"
      unicode="&#xF101;"
      horiz-adv-x="384" d=" M363.8 247.5L217 99.5C212.3 94.8 204.7 94.8 200 99.5L180.2 119.3C175.5 124 175.5 131.6 180.2 136.3L298.7 256L180.2 375.7C175.5 380.4 175.5 388 180.2 392.7L200 412.5C204.7 417.2 212.3 417.2 217 412.5L363.8 264.5C368.5 259.8 368.5 252.2 363.8 247.5zM203.8 264.5L57 412.5C52.3 417.2 44.7 417.2 40 412.5L20.2 392.7C15.5 388 15.5 380.4 20.2 375.7L138.7 256L20.2 136.3C15.5 131.6 15.5 124 20.2 119.3L40 99.5C44.7 94.8 52.3 94.8 57 99.5L203.8 247.5C208.5 252.2 208.5 259.8 203.8 264.5z" />
    <glyph glyph-name="angle-double-up"
      unicode="&#xF102;"
      horiz-adv-x="320" d=" M168.5 427.8L316.5 281C321.2 276.3 321.2 268.7 316.5 264L296.7 244.2C292 239.5 284.4 239.5 279.7 244.2L160 362.7L40.3 244.2C35.6 239.5 28 239.5 23.3 244.2L3.5 264C-1.2 268.7 -1.2 276.3 3.5 281L151.5 427.8C156.2 432.5 163.8 432.5 168.5 427.8zM151.5 267.8L3.5 121C-1.2 116.3 -1.2 108.7 3.5 104L23.3 84.2C28 79.5 35.6 79.5 40.3 84.2L160 202.7L279.7 84.2C284.4 79.5 292 79.5 296.7 84.2L316.5 104C321.2 108.7 321.2 116.3 316.5 121L168.5 267.8C163.8 272.5 156.2 272.5 151.5 267.8z" />
    <glyph glyph-name="angle-down"
      unicode="&#xF107;"
      horiz-adv-x="320" d=" M151.5 164.2L3.5 311C-1.2 315.7 -1.2 323.3 3.5 328L23.3 347.8C28 352.5 35.6 352.5 40.3 347.8L160 229.3L279.7 347.8C284.4 352.5 292 352.5 296.7 347.8L316.5 328C321.2 323.3 321.2 315.7 316.5 311L168.5 164.2C163.8 159.5 156.2 159.5 151.5 164.2z" />
    <glyph glyph-name="angle-left"
      unicode="&#xF104;"
      horiz-adv-x="192" d=" M4.2 264.5L151 412.5C155.7 417.2 163.3 417.2 168 412.5L187.8 392.7C192.5 388 192.5 380.4 187.8 375.7L69.3 256L187.8 136.3C192.5 131.6 192.5 124 187.8 119.3L168 99.5C163.3 94.8 155.7 94.8 151 99.5L4.2 247.5C-0.5 252.2 -0.5 259.8 4.2 264.5z" />
    <glyph glyph-name="angle-right"
      unicode="&#xF105;"
      horiz-adv-x="192" d=" M187.8 247.5L41 99.5C36.3 94.8 28.7 94.8 24 99.5L4.2 119.3C-0.5 124 -0.5 131.6 4.2 136.3L122.7 256L4.2 375.7C-0.5 380.4 -0.5 388 4.2 392.7L24 412.5C28.7 417.2 36.3 417.2 41 412.5L187.8 264.5C192.5 259.8 192.5 252.2 187.8 247.5z" />
    <glyph glyph-name="angle-up"
      unicode="&#xF106;"
      horiz-adv-x="320" d=" M168.5 347.8L316.5 201C321.2 196.3 321.2 188.7 316.5 184L296.7 164.2C292 159.5 284.4 159.5 279.7 164.2L160 282.7L40.3 164.2C35.6 159.5 28 159.5 23.3 164.2L3.5 184C-1.2 188.7 -1.2 196.3 3.5 201L151.5 347.8C156.2 352.5 163.8 352.5 168.5 347.8z" />
    <glyph glyph-name="archive"
      unicode="&#xF187;"
      horiz-adv-x="512" d=" M464 480H48C21.49 480 0 458.51 0 432V368C0 347.072 13.398 329.282 32.081 322.7150000000001C32.031 321.8160000000001 32 320.9120000000001 32 320V80C32 53.49 53.49 32 80 32H432C458.51 32 480 53.49 480 80V320C480 320.9120000000001 479.969 321.8160000000001 479.919 322.7150000000001C498.602 329.2820000000001 512 347.072 512 368V432C512 458.51 490.51 480 464 480zM48 426A6 6 0 0 0 54 432H458A6 6 0 0 0 464 426V374A6 6 0 0 0 458 368H54A6 6 0 0 0 48 374V426zM432 86A6 6 0 0 0 426 80H86A6 6 0 0 0 80 86V314A6 6 0 0 0 86 320H426A6 6 0 0 0 432 314V86zM308 232H204C197.373 232 192 237.373 192 244V268C192 274.627 197.373 280 204 280H308C314.627 280 320 274.627 320 268V244C320 237.373 314.627 232 308 232z" />
    <glyph glyph-name="arrow-alt-circle-down"
      unicode="&#xF358;"
      horiz-adv-x="512" d=" M256 504C119 504 8 393 8 256S119 8 256 8S504 119 504 256S393 504 256 504zM256 56C145.5 56 56 145.5 56 256S145.5 456 256 456S456 366.5 456 256S366.5 56 256 56zM224 372V256H157C146.3 256 141 243.1 148.5 235.5L247.5 136.5C252.2 131.8 259.8 131.8 264.5 136.5L363.5 235.5C371.1 243.1 365.7 256 355 256H288V372C288 378.6 282.6 384 276 384H236C229.4 384 224 378.6 224 372z" />
    <glyph glyph-name="arrow-alt-circle-left"
      unicode="&#xF359;"
      horiz-adv-x="512" d=" M8 256C8 119 119 8 256 8S504 119 504 256S393 504 256 504S8 393 8 256zM456 256C456 145.5 366.5 56 256 56S56 145.5 56 256S145.5 456 256 456S456 366.5 456 256zM384 276V236C384 229.4 378.6 224 372 224H256V157C256 146.3 243.1 141 235.5 148.5L136.5 247.5C131.8 252.2 131.8 259.8 136.5 264.5L235.5 363.5C243.1 371.1 256 365.7 256 355V288H372C378.6 288 384 282.6 384 276z" />
    <glyph glyph-name="arrow-alt-circle-right"
      unicode="&#xF35A;"
      horiz-adv-x="512" d=" M504 256C504 393 393 504 256 504S8 393 8 256S119 8 256 8S504 119 504 256zM56 256C56 366.5 145.5 456 256 456S456 366.5 456 256S366.5 56 256 56S56 145.5 56 256zM128 236V276C128 282.6 133.4 288 140 288H256V355C256 365.7 268.9 371 276.5 363.5L375.5 264.5C380.2 259.8 380.2 252.2 375.5 247.5L276.5 148.5C268.9 140.9 256 146.3 256 157V224H140C133.4 224 128 229.4 128 236z" />
    <glyph glyph-name="arrow-alt-circle-up"
      unicode="&#xF35B;"
      horiz-adv-x="512" d=" M256 8C393 8 504 119 504 256S393 504 256 504S8 393 8 256S119 8 256 8zM256 456C366.5 456 456 366.5 456 256S366.5 56 256 56S56 145.5 56 256S145.5 456 256 456zM276 128H236C229.4 128 224 133.4 224 140V256H157C146.3 256 141 268.9 148.5 276.5L247.5 375.5C252.2 380.2 259.8 380.2 264.5 375.5L363.5 276.5C371.1 268.9 365.7 256 355 256H288V140C288 133.4 282.6 128 276 128z" />
    <glyph glyph-name="arrow-alt-down"
      unicode="&#xF354;"
      horiz-adv-x="448" d=" M400 304H326.2V432C326.2 458.5 304.7 480 278.2 480H169.8C143.3 480 121.8 458.5 121.8 432V304H48.1C5.5 304 -16.1 252.3 14.2 222.1L190.1 46.1C208.8 27.4 239.2 27.4 258 46.1L434 222.1C464 252.2000000000001 442.7 304 400 304zM224 80L48 256H169.8V432H278.1V256H400L224 80z" />
    <glyph glyph-name="arrow-alt-from-bottom"
      unicode="&#xF346;"
      horiz-adv-x="384" d=" M384 68V44C384 37.4 378.6 32 372 32H12C5.4 32 0 37.4 0 44V68C0 74.6 5.4 80 12 80H372C378.6 80 384 74.6 384 68zM14.1 321.9L158.1 465.9C176.8 484.6 207.2 484.6 226 465.9L369.9 321.9C400.1 291.7000000000001 378.6 240 336 240H284.4V160C284.4 133.5 262.9 112 236.4 112H147.8C121.3 112 99.8 133.5 99.8 160V240H48C5.3 240 -16 291.8 14.1 321.9zM48 288H147.7V160H236.3V288H336L192 432L48 288z" />
    <glyph glyph-name="arrow-alt-from-left"
      unicode="&#xF347;"
      horiz-adv-x="448" d=" M36 64H12C5.4 64 0 69.4 0 76V436C0 442.6 5.4 448 12 448H36C42.6 448 48 442.6 48 436V76C48 69.4 42.6 64 36 64zM289.9 433.9L433.9 289.9C452.6 271.2000000000001 452.6 240.8 433.9 222L289.9 78.1C259.7 47.9 208 69.4 208 112V163.6H128C101.5 163.6 80 185.1 80 211.6V300.2000000000001C80 326.7000000000001 101.5 348.2000000000001 128 348.2000000000001H208V400C208 442.7 259.8 464 289.9 433.9zM256 400V300.3H128V211.7000000000001H256V112L400 256L256 400z" />
    <glyph glyph-name="arrow-alt-from-right"
      unicode="&#xF348;"
      horiz-adv-x="448" d=" M412 448H436C442.6 448 448 442.6 448 436V76C448 69.4 442.6 64 436 64H412C405.4 64 400 69.4 400 76V436C400 442.6 405.4 448 412 448zM158.1 78.1L14.1 222.1C-4.6 240.8 -4.6 271.2000000000001 14.1 290L158.1 433.9000000000001C188.3 464.1 240 442.6 240 400V348.4H320C346.5 348.4 368 326.9 368 300.4V211.8C368 185.3 346.5 163.8 320 163.8H240V112C240 69.3 188.2 48 158.1 78.1zM192 112V211.7H320V300.3H192V400L48 256L192 112z" />
    <glyph glyph-name="arrow-alt-from-top"
      unicode="&#xF349;"
      horiz-adv-x="384" d=" M0 444V468C0 474.6 5.4 480 12 480H372C378.6 480 384 474.6 384 468V444C384 437.4 378.6 432 372 432H12C5.4 432 0 437.4 0 444zM369.9 190.1L225.9 46.1C207.2 27.4 176.8 27.4 158 46.1L14.1 190.1C-16.1 220.3 5.4 272 48.1 272H99.7V352C99.7 378.5 121.2 400 147.7 400H236.3C262.8 400 284.3 378.5 284.3 352V272H336C378.7 272 400 220.2000000000001 369.9 190.1zM336 224H236.3V352H147.7V224H48L192 80L336 224z" />
    <glyph glyph-name="arrow-alt-left"
      unicode="&#xF355;"
      horiz-adv-x="448" d=" M272 80.048V153.846H400C426.51 153.846 448 175.336 448 201.846V310.154C448 336.664 426.51 358.154 400 358.154H272V431.943C272 474.581 220.269 496.093 190.059 465.884L14.059 289.941C-4.686 271.196 -4.687 240.804 14.059 222.059L190.059 46.107C220.208 15.958 272 37.325 272 80.048zM48 256L224 432V310.154H400V201.846H224V80L48 256z" />
    <glyph glyph-name="arrow-alt-right"
      unicode="&#xF356;"
      horiz-adv-x="448" d=" M176 431.952V358.154H48C21.49 358.154 0 336.664 0 310.154V201.846C0 175.336 21.49 153.846 48 153.846H176V80.057C176 37.419 227.731 15.906 257.9410000000001 46.116L433.9410000000001 222.059C452.686 240.804 452.687 271.196 433.9410000000001 289.941L257.9410000000001 465.893C227.792 496.042 176 474.675 176 431.952zM400 256L224 80V201.846H48V310.154H224V432L400 256z" />
    <glyph glyph-name="arrow-alt-square-down"
      unicode="&#xF350;"
      horiz-adv-x="448" d=" M204 384H244C250.6 384 256 378.6 256 372V256H323C333.7 256 339 243.1 331.5 235.5L232.5 136.5C227.8 131.8 220.2 131.8 215.5 136.5L116.5 235.5C108.9 243.1 114.3 256 125 256H192V372C192 378.6 197.4 384 204 384zM448 432V80C448 53.5 426.5 32 400 32H48C21.5 32 0 53.5 0 80V432C0 458.5 21.5 480 48 480H400C426.5 480 448 458.5 448 432zM400 86V426C400 429.3 397.3 432 394 432H54C50.7 432 48 429.3 48 426V86C48 82.7 50.7 80 54 80H394C397.3 80 400 82.7 400 86z" />
    <glyph glyph-name="arrow-alt-square-left"
      unicode="&#xF351;"
      horiz-adv-x="448" d=" M352 276V236C352 229.4 346.6 224 340 224H224V157C224 146.3 211.1 141 203.5 148.5L104.5 247.5C99.8 252.2 99.8 259.8 104.5 264.5L203.5 363.5C211.1 371.1 224 365.7 224 355V288H340C346.6 288 352 282.6 352 276zM448 432V80C448 53.5 426.5 32 400 32H48C21.5 32 0 53.5 0 80V432C0 458.5 21.5 480 48 480H400C426.5 480 448 458.5 448 432zM400 86V426C400 429.3 397.3 432 394 432H54C50.7 432 48 429.3 48 426V86C48 82.7 50.7 80 54 80H394C397.3 80 400 82.7 400 86z" />
    <glyph glyph-name="arrow-alt-square-right"
      unicode="&#xF352;"
      horiz-adv-x="448" d=" M96 236V276C96 282.6 101.4 288 108 288H224V355C224 365.7 236.9 371 244.5 363.5L343.5 264.5C348.2 259.8 348.2 252.2 343.5 247.5L244.5 148.5C236.9 140.9 224 146.3 224 157V224H108C101.4 224 96 229.4 96 236zM448 432V80C448 53.5 426.5 32 400 32H48C21.5 32 0 53.5 0 80V432C0 458.5 21.5 480 48 480H400C426.5 480 448 458.5 448 432zM400 86V426C400 429.3 397.3 432 394 432H54C50.7 432 48 429.3 48 426V86C48 82.7 50.7 80 54 80H394C397.3 80 400 82.7 400 86z" />
    <glyph glyph-name="arrow-alt-square-up"
      unicode="&#xF353;"
      horiz-adv-x="448" d=" M244 128H204C197.4 128 192 133.4 192 140V256H125C114.3 256 109 268.9 116.5 276.5L215.5 375.5C220.2 380.2 227.8 380.2 232.5 375.5L331.5 276.5C339.1 268.9 333.7 256 323 256H256V140C256 133.4 250.6 128 244 128zM448 432V80C448 53.5 426.5 32 400 32H48C21.5 32 0 53.5 0 80V432C0 458.5 21.5 480 48 480H400C426.5 480 448 458.5 448 432zM400 86V426C400 429.3 397.3 432 394 432H54C50.7 432 48 429.3 48 426V86C48 82.7 50.7 80 54 80H394C397.3 80 400 82.7 400 86z" />
    <glyph glyph-name="arrow-alt-to-bottom"
      unicode="&#xF34A;"
      horiz-adv-x="384" d=" M336 336H284.4V432C284.4 458.5 262.9 480 236.4 480H147.8C121.3 480 99.8 458.5 99.8 432V336H48.1C5.5 336 -16.1 284.3 14.2 254.1L158.1 110.1C176.8 91.4 207.2 91.4 226.0000000000001 110.1L370 254.1C400 284.2000000000001 378.7 336 336 336zM192 144L48 288H147.7V432H236.3V288H336L192 144zM384 68V44C384 37.4 378.6 32 372 32H12C5.4 32 0 37.4 0 44V68C0 74.6 5.4 80 12 80H372C378.6 80 384 74.6 384 68z" />
    <glyph glyph-name="arrow-alt-to-left"
      unicode="&#xF34B;"
      horiz-adv-x="448" d=" M304 112V163.6H400C426.5 163.6 448 185.1 448 211.6V300.2000000000001C448 326.7000000000001 426.5 348.2000000000001 400 348.2000000000001H304V399.8C304 442.4 252.3 464 222.1 433.7000000000001L78.1 289.8C59.4 271.1 59.4 240.7 78.1 221.9L222.1 77.9C252.2 48 304 69.3 304 112zM112 256L256 400V300.3H400V211.7000000000001H256V112L112 256zM36 64H12C5.4 64 0 69.4 0 76V436C0 442.6 5.4 448 12 448H36C42.6 448 48 442.6 48 436V76C48 69.4 42.6 64 36 64z" />
    <glyph glyph-name="arrow-alt-to-right"
      unicode="&#xF34C;"
      horiz-adv-x="448" d=" M144 400V348.4H48C21.5 348.4 0 326.9 0 300.4V211.8C0 185.3 21.5 163.8 48 163.8H144V112.2C144 69.6 195.7 48 225.9 78.3L369.9 222.2000000000001C388.6 240.9000000000001 388.6 271.3000000000001 369.9 290.1L225.9 434.1C195.8 464 144 442.7 144 400zM336 256L192 112V211.7H48V300.3H192V400L336 256zM412 448H436C442.6 448 448 442.6 448 436V76C448 69.4 442.6 64 436 64H412C405.4 64 400 69.4 400 76V436C400 442.6 405.4 448 412 448z" />
    <glyph glyph-name="arrow-alt-to-top"
      unicode="&#xF34D;"
      horiz-adv-x="384" d=" M48 176H99.6V80C99.6 53.5 121.1 32 147.6 32H236.2C262.7 32 284.2 53.5 284.2 80V176H335.8C378.4000000000001 176 400 227.7 369.7 257.9L225.8 401.9C207.1 420.6 176.7 420.6 157.9 401.9L13.9 257.9C-16 227.8 5.3 176 48 176zM192 368L336 224H236.3V80H147.7V224H48L192 368zM0 444V468C0 474.6 5.4 480 12 480H372C378.6 480 384 474.6 384 468V444C384 437.4 378.6 432 372 432H12C5.4 432 0 437.4 0 444z" />
    <glyph glyph-name="arrow-alt-up"
      unicode="&#xF357;"
      horiz-adv-x="448" d=" M48.048 208H121.846V80C121.846 53.49 143.336 32 169.846 32H278.154C304.664 32 326.154 53.49 326.154 80V208H399.943C442.581 208 464.094 259.731 433.884 289.9410000000001L257.9410000000001 465.941C239.1960000000001 484.686 208.804 484.687 190.059 465.941L14.107 289.9410000000001C-16.042 259.7920000000001 5.325 208 48.048 208zM224 432L400 256H278.154V80H169.846V256H48L224 432z" />
    <glyph glyph-name="arrow-circle-down"
      unicode="&#xF0AB;"
      horiz-adv-x="512" d=" M256 504C119 504 8 393 8 256S119 8 256 8S504 119 504 256S393 504 256 504zM256 56C145.5 56 56 145.5 56 256S145.5 456 256 456S456 366.5 456 256S366.5 56 256 56zM385.9 262.1L366.3 281.7C361.5 286.5 353.8 286.4 349.1 281.5L282 211.2V372C282 378.6 276.6 384 270 384H242C235.4 384 230 378.6 230 372V211.2L162.9 281.5C158.2 286.4 150.5 286.5 145.7 281.7L126.1 262.1C121.4 257.4 121.4 249.8 126.1 245.1L247.5000000000001 123.7000000000001C252.2 119.0000000000001 259.8 119.0000000000001 264.5 123.7000000000001L385.9 245.1C390.6 249.8 390.6 257.4000000000001 385.9 262.1z" />
    <glyph glyph-name="arrow-circle-left"
      unicode="&#xF0A8;"
      horiz-adv-x="512" d=" M504 256C504 393 393 504 256 504S8 393 8 256S119 8 256 8S504 119 504 256zM56 256C56 366.5 145.5 456 256 456S456 366.5 456 256S366.5 56 256 56S56 145.5 56 256zM245.1 126.1L123.7 247.5C119 252.2 119 259.8 123.7 264.5L245.1 385.9C249.8 390.6 257.4000000000001 390.6 262.1 385.9L281.7000000000001 366.3C286.5000000000001 361.5 286.4000000000001 353.8 281.5000000000001 349.1L211.2 282H372C378.6 282 384 276.6 384 270V242C384 235.4 378.6 230 372 230H211.2L281.5 162.9C286.4 158.2 286.5 150.5 281.7 145.7L262.1 126.1C257.4 121.4 249.8 121.4 245.1 126.1z" />
    <glyph glyph-name="arrow-circle-right"
      unicode="&#xF0A9;"
      horiz-adv-x="512" d=" M8 256C8 119 119 8 256 8S504 119 504 256S393 504 256 504S8 393 8 256zM456 256C456 145.5 366.5 56 256 56S56 145.5 56 256S145.5 456 256 456S456 366.5 456 256zM266.9 385.9L388.3 264.5C393 259.8 393 252.2 388.3 247.5L266.9 126.1C262.2 121.4 254.6 121.4 249.9 126.1L230.3 145.7000000000001C225.5 150.5000000000001 225.6 158.2000000000001 230.5 162.9L300.8 230H140C133.4 230 128 235.4 128 242V270C128 276.6 133.4 282 140 282H300.8L230.5 349.1C225.6 353.8 225.5 361.5 230.3 366.3L249.9 385.9C254.6 390.6 262.2 390.6 266.9 385.9z" />
    <glyph glyph-name="arrow-circle-up"
      unicode="&#xF0AA;"
      horiz-adv-x="512" d=" M256 8C393 8 504 119 504 256S393 504 256 504S8 393 8 256S119 8 256 8zM256 456C366.5 456 456 366.5 456 256S366.5 56 256 56S56 145.5 56 256S145.5 456 256 456zM126.1 266.9L247.5 388.3C252.2 393 259.8 393 264.5 388.3L385.9 266.9C390.6 262.2000000000001 390.6 254.6 385.9 249.9L366.3 230.3C361.5 225.5 353.8 225.6 349.1 230.5L282 300.8V140C282 133.4 276.6 128 270 128H242C235.4 128 230 133.4 230 140V300.8L162.9 230.5C158.2 225.6 150.5 225.5 145.7 230.3L126.1 249.9000000000001C121.4 254.6 121.4 262.2000000000001 126.1 266.9000000000001z" />
    <glyph glyph-name="arrow-down"
      unicode="&#xF063;"
      horiz-adv-x="448" d=" M441.9 261.9L422.1 281.7000000000001C417.4 286.4 409.8 286.4 405.1 281.7000000000001L250 126.6V468C250 474.6 244.6 480 238 480H210C203.4 480 198 474.6 198 468V126.6L42.9 281.7C38.2 286.4 30.6 286.4 25.9 281.7L6.1 261.9C1.4 257.2000000000001 1.4 249.6 6.1 244.9L215.5 35.5C220.2 30.8 227.8 30.8 232.5 35.5L441.9 244.9C446.6 249.6 446.6 257.2 441.9 261.9z" />
    <glyph glyph-name="arrow-from-bottom"
      unicode="&#xF342;"
      horiz-adv-x="384" d=" M35.5 328.1L183.5 476.5C188.2 481.2 195.8 481.2 200.5 476.5L348.5 328.1C353.2 323.4 353.2 315.8 348.5 311.1L328.9 291.5C324.1 286.7 316.4 286.8 311.8 291.7L218 388.8V140C218 133.4 212.6 128 206 128H178C171.4 128 166 133.4 166 140V388.8L72.3 291.7C67.6 286.9 59.9 286.8 55.2 291.5L35.6 311.1C30.8 315.8 30.8 323.4 35.5 328.1zM372 84H12C5.4 84 0 78.6 0 72V44C0 37.4 5.4 32 12 32H372C378.6 32 384 37.4 384 44V72C384 78.6 378.6 84 372 84z" />
    <glyph glyph-name="arrow-from-left"
      unicode="&#xF343;"
      horiz-adv-x="448" d=" M296.1 412.5L444.5 264.5C449.2 259.8 449.2 252.2 444.5 247.5L296.1 99.5C291.4000000000001 94.8 283.8 94.8 279.1 99.5L259.5 119.1C254.7 123.9 254.8 131.6 259.7 136.2000000000001L356.8 229.9000000000001H108C101.4 229.9000000000001 96 235.3 96 241.9000000000001V269.9000000000001C96 276.5 101.4 281.9000000000001 108 281.9000000000001H356.8L259.7000000000001 375.6C254.9000000000001 380.3 254.8000000000001 388 259.5000000000001 392.7000000000001L279.1000000000001 412.3C283.8000000000001 417.2000000000001 291.4000000000001 417.2000000000001 296.1000000000001 412.5zM52 76V436C52 442.6 46.6 448 40 448H12C5.4 448 0 442.6 0 436V76C0 69.4 5.4 64 12 64H40C46.6 64 52 69.4 52 76z" />
    <glyph glyph-name="arrow-from-right"
      unicode="&#xF344;"
      horiz-adv-x="448" d=" M151.9 99.5L3.5 247.5C-1.2 252.2 -1.2 259.8 3.5 264.5L151.9 412.5C156.6 417.2 164.2 417.2 168.9 412.5L188.5 392.9C193.3 388.1 193.2 380.4 188.3 375.8L91.2 282H340C346.6 282 352 276.6 352 270V242C352 235.4 346.6 230 340 230H91.2L188.3 136.3C193.1 131.6 193.2 123.9 188.5 119.2L168.9 99.6C164.2 94.8 156.6 94.8 151.9 99.4999999999999zM396 436V76C396 69.4 401.4 64 408 64H436C442.6 64 448 69.4 448 76V436C448 442.6 442.6 448 436 448H408C401.4 448 396 442.6 396 436z" />
    <glyph glyph-name="arrow-from-top"
      unicode="&#xF345;"
      horiz-adv-x="384" d=" M348.5 183.9L200.5 35.5C195.8 30.8 188.2 30.8 183.5 35.5L35.5 183.9C30.8 188.6 30.8 196.2 35.5 200.9L55.1 220.5C59.9 225.3 67.6 225.2 72.2 220.3L165.9 123.2000000000001V372C165.9 378.6 171.3 384 177.9 384H205.9C212.5 384 217.9 378.6 217.9 372V123.2L311.6 220.3C316.3 225.1 324 225.2 328.7000000000001 220.5L348.3000000000001 200.8999999999999C353.2000000000001 196.1999999999999 353.2000000000001 188.5999999999999 348.5000000000001 183.8999999999999zM12 428H372C378.6 428 384 433.4 384 440V468C384 474.6 378.6 480 372 480H12C5.4 480 0 474.6 0 468V440C0 433.4 5.4 428 12 428z" />
    <glyph glyph-name="arrow-left"
      unicode="&#xF060;"
      horiz-adv-x="448" d=" M229.9 38.101L249.699 57.9C254.385 62.586 254.385 70.184 249.699 74.871L94.569 230H436C442.627 230 448 235.373 448 242V270C448 276.627 442.627 282 436 282H94.569L249.699 437.13C254.385 441.8160000000001 254.385 449.414 249.699 454.101L229.9 473.899C225.214 478.585 217.616 478.585 212.929 473.899L3.515 264.485C-1.171 259.799 -1.171 252.201 3.515 247.514L212.929 38.1C217.615 33.414 225.213 33.414 229.9 38.101z" />
    <glyph glyph-name="arrow-right"
      unicode="&#xF061;"
      horiz-adv-x="448" d=" M218.101 473.899L198.302 454.1C193.616 449.414 193.616 441.8160000000001 198.302 437.129L353.432 282H12C5.373 282 0 276.627 0 270V242C0 235.373 5.373 230 12 230H353.432L198.302 74.87C193.616 70.184 193.616 62.586 198.302 57.899L218.101 38.1C222.787 33.414 230.385 33.414 235.0720000000001 38.1L444.486 247.514C449.172 252.2 449.172 259.798 444.486 264.485L235.071 473.899C230.385 478.586 222.787 478.586 218.101 473.899z" />
    <glyph glyph-name="arrow-square-down"
      unicode="&#xF339;"
      horiz-adv-x="448" d=" M353.9 245.1L232.5 123.7C227.8 119 220.2 119 215.5 123.7L94.1 245.1C89.4 249.8 89.4 257.4000000000001 94.1 262.1L113.7 281.7000000000001C118.5 286.5 126.2 286.4 130.9 281.5L198 211.2000000000001V372C198 378.6 203.4 384 210 384H238C244.6 384 250 378.6 250 372V211.2L317.1 281.5C321.8 286.4 329.5 286.5 334.3 281.7L353.9 262.1C358.6 257.4 358.6 249.8 353.9 245.1zM448 432V80C448 53.5 426.5 32 400 32H48C21.5 32 0 53.5 0 80V432C0 458.5 21.5 480 48 480H400C426.5 480 448 458.5 448 432zM400 86V426C400 429.3 397.3 432 394 432H54C50.7 432 48 429.3 48 426V86C48 82.7 50.7 80 54 80H394C397.3 80 400 82.7 400 86z" />
    <glyph glyph-name="arrow-square-left"
      unicode="&#xF33A;"
      horiz-adv-x="448" d=" M213.1 126.1L91.7 247.5C87 252.2 87 259.8 91.7 264.5L213.1 385.9C217.8 390.6 225.4000000000001 390.6 230.1 385.9L249.7 366.3C254.5000000000001 361.5 254.4 353.8 249.5000000000001 349.1L179.2 282H340C346.6 282 352 276.6 352 270V242C352 235.4 346.6 230 340 230H179.2L249.5 162.9C254.4 158.2 254.5 150.5 249.7 145.7L230.1 126.1C225.4 121.4 217.8 121.4 213.1 126.1zM448 432V80C448 53.5 426.5 32 400 32H48C21.5 32 0 53.5 0 80V432C0 458.5 21.5 480 48 480H400C426.5 480 448 458.5 448 432zM400 86V426C400 429.3 397.3 432 394 432H54C50.7 432 48 429.3 48 426V86C48 82.7 50.7 80 54 80H394C397.3 80 400 82.7 400 86z" />
    <glyph glyph-name="arrow-square-right"
      unicode="&#xF33B;"
      horiz-adv-x="448" d=" M234.9 385.9L356.3 264.5C361 259.8 361 252.2 356.3 247.5L234.9 126.1C230.2 121.4 222.6 121.4 217.9 126.1L198.3 145.7000000000001C193.5 150.5000000000001 193.6 158.2000000000001 198.5 162.9L268.8 230H108C101.4 230 96 235.4 96 242V270C96 276.6 101.4 282 108 282H268.8L198.5 349.1C193.6 353.8 193.5 361.5 198.3 366.3L217.9 385.9C222.6 390.6 230.2 390.6 234.9 385.9zM448 432V80C448 53.5 426.5 32 400 32H48C21.5 32 0 53.5 0 80V432C0 458.5 21.5 480 48 480H400C426.5 480 448 458.5 448 432zM400 86V426C400 429.3 397.3 432 394 432H54C50.7 432 48 429.3 48 426V86C48 82.7 50.7 80 54 80H394C397.3 80 400 82.7 400 86z" />
    <glyph glyph-name="arrow-square-up"
      unicode="&#xF33C;"
      horiz-adv-x="448" d=" M94.1 266.9L215.5 388.3C220.2 393 227.8 393 232.5 388.3L353.9 266.9C358.6 262.2000000000001 358.6 254.6 353.9 249.9L334.3 230.3C329.5 225.5 321.8 225.6 317.1 230.5L250 300.8V140C250 133.4 244.6 128 238 128H210C203.4 128 198 133.4 198 140V300.8L130.9 230.5C126.2 225.6 118.5 225.5 113.7 230.3L94.1 249.9000000000001C89.4 254.6 89.4 262.2000000000001 94.1 266.9000000000001zM448 432V80C448 53.5 426.5 32 400 32H48C21.5 32 0 53.5 0 80V432C0 458.5 21.5 480 48 480H400C426.5 480 448 458.5 448 432zM400 86V426C400 429.3 397.3 432 394 432H54C50.7 432 48 429.3 48 426V86C48 82.7 50.7 80 54 80H394C397.3 80 400 82.7 400 86z" />
    <glyph glyph-name="arrow-to-bottom"
      unicode="&#xF33D;"
      horiz-adv-x="384" d=" M348.5 279.9L200.5 131.5C195.8 126.8 188.2 126.8 183.5 131.5L35.5 279.9C30.8 284.6 30.8 292.2000000000001 35.5 296.9L55.1 316.5C59.9 321.3 67.6 321.2 72.2 316.3L165.9 219.2000000000001V468C165.9 474.6 171.3 480 177.9 480H205.9C212.5 480 217.9 474.6 217.9 468V219.2L311.6 316.3C316.3 321.1 324 321.2 328.7000000000001 316.5L348.3000000000001 296.9C353.2000000000001 292.2 353.2000000000001 284.6 348.5000000000001 279.9zM372 84H12C5.4 84 0 78.6 0 72V44C0 37.4 5.4 32 12 32H372C378.6 32 384 37.4 384 44V72C384 78.6 378.6 84 372 84z" />
    <glyph glyph-name="arrow-to-left"
      unicode="&#xF33E;"
      horiz-adv-x="448" d=" M247.9 99.5L99.5 247.5C94.8 252.2 94.8 259.8 99.5 264.5L247.9 412.5C252.6 417.2 260.2 417.2 264.9 412.5L284.5 392.9C289.3 388.1 289.2 380.4 284.3 375.8L187.2 282H436C442.6 282 448 276.6 448 270V242C448 235.4 442.6 230 436 230H187.2L284.3 136.3C289.1 131.6 289.2 123.9 284.5 119.2L264.8999999999999 99.6C260.2 94.8 252.5999999999999 94.8 247.8999999999999 99.4999999999999zM52 76V436C52 442.6 46.6 448 40 448H12C5.4 448 0 442.6 0 436V76C0 69.4 5.4 64 12 64H40C46.6 64 52 69.4 52 76z" />
    <glyph glyph-name="arrow-to-right"
      unicode="&#xF340;"
      horiz-adv-x="448" d=" M200.1 412.5L348.5 264.5C353.2 259.8 353.2 252.2 348.5 247.5L200.1 99.5C195.4 94.8 187.8 94.8 183.1 99.5L163.5 119.1C158.7 123.9 158.8 131.6 163.7 136.2000000000001L260.8 229.9000000000001H12C5.4 229.9000000000001 0 235.3 0 241.9000000000001V269.9000000000001C0 276.5 5.4 281.9000000000001 12 281.9000000000001H260.8L163.7 375.6C158.9 380.3 158.8 388 163.5 392.7000000000001L183.1 412.3C187.8 417.2000000000001 195.4 417.2000000000001 200.1 412.5zM396 436V76C396 69.4 401.4 64 408 64H436C442.6 64 448 69.4 448 76V436C448 442.6 442.6 448 436 448H408C401.4 448 396 442.6 396 436z" />
    <glyph glyph-name="arrow-to-top"
      unicode="&#xF341;"
      horiz-adv-x="384" d=" M35.5 232.1L183.5 380.5C188.2 385.2000000000001 195.8 385.2000000000001 200.5 380.5L348.5 232.1C353.2 227.4000000000001 353.2 219.8 348.5 215.1L328.9 195.5C324.1 190.7 316.4 190.8 311.8 195.7L218 292.8V44C218 37.4 212.6 32 206 32H178C171.4 32 166 37.4 166 44V292.8L72.3 195.7000000000001C67.6 190.9 59.9 190.8000000000001 55.2 195.5000000000001L35.6 215.1000000000001C30.8 219.8000000000001 30.8 227.4000000000001 35.5 232.1000000000001zM12 428H372C378.6 428 384 433.4 384 440V468C384 474.6 378.6 480 372 480H12C5.4 480 0 474.6 0 468V440C0 433.4 5.4 428 12 428z" />
    <glyph glyph-name="arrow-up"
      unicode="&#xF062;"
      horiz-adv-x="448" d=" M6.101 250.101L25.9 230.302C30.586 225.6160000000001 38.184 225.6160000000001 42.871 230.302L198 385.432V44C198 37.373 203.373 32 210 32H238C244.627 32 250 37.373 250 44V385.432L405.13 230.302C409.816 225.6160000000001 417.414 225.6160000000001 422.101 230.302L441.9 250.101C446.586 254.787 446.586 262.385 441.9 267.072L232.485 476.485C227.799 481.171 220.201 481.171 215.514 476.485L6.101 267.0710000000001C1.414 262.385 1.414 254.787 6.101 250.101z" />
    <glyph glyph-name="arrows-alt-h"
      unicode="&#xF337;"
      horiz-adv-x="512" d=" M508.485 264.485L409.4550000000001 363.514C401.8950000000001 371.074 388.9700000000001 365.7200000000001 388.9700000000001 355.029V284H123.03V355.03C123.03 365.721 110.104 371.075 102.545 363.515L3.515 264.486C-1.171 259.8 -1.171 252.202 3.515 247.515L102.545 148.486C110.105 140.926 123.03 146.28 123.03 156.971V228H388.971V156.97C388.971 146.2790000000001 401.897 140.925 409.456 148.485L508.486 247.514C513.172 252.201 513.172 259.799 508.485 264.485z" />
    <glyph glyph-name="arrows-alt-v"
      unicode="&#xF338;"
      horiz-adv-x="256" d=" M227.03 123.03H156V388.9700000000001H227.03C237.721 388.9700000000001 243.075 401.896 235.515 409.455L136.486 508.485C131.8 513.171 124.202 513.171 119.515 508.485L20.486 409.455C12.926 401.895 18.28 388.9700000000001 28.971 388.9700000000001H100V123.03H28.97C18.279 123.03 12.925 110.104 20.485 102.545L119.514 3.515C124.2 -1.171 131.798 -1.171 136.485 3.515L235.514 102.545C243.074 110.104 237.72 123.03 227.03 123.03z" />
    <glyph glyph-name="arrows-alt"
      unicode="&#xF0B2;"
      horiz-adv-x="512" d=" M276 275.925H391.85V352.0750000000001C391.85 362.766 404.776 368.12 412.3350000000001 360.56L508.484 264.411C513.1700000000001 259.725 513.1700000000001 252.127 508.484 247.44L412.3350000000001 151.291C404.7750000000001 143.731 391.85 149.085 391.85 159.776V235.925H275.999V120.149H352.149C362.84 120.149 368.194 107.223 360.634 99.664L264.485 3.514C259.7990000000001 -1.172 252.201 -1.172 247.514 3.514L151.365 99.663C143.805 107.223 149.159 120.148 159.85 120.148H236V235.925H120.149V159.776C120.149 149.085 107.223 143.731 99.664 151.291L3.515 247.44C-1.171 252.126 -1.171 259.724 3.515 264.411L99.664 360.56C107.224 368.12 120.149 362.766 120.149 352.075V275.925H236V391.85H159.851C149.16 391.85 143.806 404.776 151.366 412.335L247.515 508.484C252.201 513.17 259.799 513.17 264.486 508.484L360.635 412.335C368.195 404.775 362.841 391.85 352.15 391.85H276V275.925z" />
    <glyph glyph-name="arrows-h"
      unicode="&#xF07E;"
      horiz-adv-x="512" d=" M347.404 369.14C342.651 364.387 342.729 356.656 347.577 352L420.78 282H91.22L164.423 352C169.272 356.656 169.35 364.387 164.596 369.14L144.97 388.766C140.284 393.452 132.686 393.452 127.999 388.766L3.515 264.485C-1.171 259.799 -1.171 252.201 3.515 247.514L128 123.234C132.686 118.548 140.284 118.548 144.971 123.234L164.597 142.86C169.35 147.613 169.272 155.3439999999999 164.424 160L91.22 230H420.78L347.577 160C342.728 155.344 342.65 147.613 347.404 142.86L367.03 123.234C371.716 118.5480000000001 379.314 118.5480000000001 384.001 123.234L508.486 247.5150000000001C513.172 252.201 513.172 259.7990000000001 508.486 264.4860000000001L384 388.766C379.314 393.452 371.716 393.452 367.029 388.766L347.404 369.14z" />
    <glyph glyph-name="arrows-v"
      unicode="&#xF07D;"
      horiz-adv-x="320" d=" M273.1 164.6C268.3 169.4 260.6 169.3 256 164.4L186 91.2000000000001V420.8L256 347.6C260.7 342.8 268.4 342.7 273.1 347.4L292.7000000000001 367C297.4000000000001 371.7 297.4000000000001 379.3 292.7000000000001 384L168.5 508.5C163.8 513.2 156.2 513.2 151.5 508.5L27.2 384C22.5 379.3 22.5 371.7 27.2 367L46.8 347.4C51.6 342.6 59.3 342.7000000000001 63.9 347.6L133.9 420.8V91.2L63.9 164.4C59.2 169.2 51.5 169.3 46.8 164.6L27.2 145C22.5 140.3 22.5 132.7 27.2 128L151.5 3.5C156.2 -1.2 163.8 -1.2 168.5 3.5L292.8 128C297.5 132.7 297.5 140.3 292.8 145L273.1 164.6z" />
    <glyph glyph-name="arrows"
      unicode="&#xF047;"
      horiz-adv-x="512" d=" M360.549 99.784L264.485 3.515C259.7990000000001 -1.171 252.201 -1.171 247.514 3.515L151.45 99.784C146.764 104.47 146.764 112.068 151.45 116.755L171.076 136.381C175.829 141.134 183.56 141.056 188.216 136.208L230 91.22H232V232H91.22V230L136.206 188.217C141.055 183.561 141.133 175.83 136.379 171.077L116.753 151.451C112.067 146.7650000000001 104.469 146.7650000000001 99.782 151.451L3.515 247.515C-1.171 252.201 -1.171 259.799 3.515 264.486L99.784 360.55C104.47 365.236 112.068 365.236 116.754 360.55L136.38 340.924C141.133 336.171 141.055 328.44 136.207 323.784L91.22 282V280H232V420.78H230L188.217 375.794C183.561 370.9450000000001 175.83 370.867 171.077 375.621L151.451 395.247C146.765 399.933 146.765 407.531 151.451 412.218L247.515 508.487C252.201 513.173 259.799 513.173 264.486 508.487L360.55 412.218C365.236 407.5320000000001 365.236 399.9340000000001 360.55 395.247L340.924 375.621C336.171 370.868 328.44 370.9460000000001 323.784 375.794L282 420.78H280V280H420.78V282L375.794 323.783C370.945 328.439 370.867 336.17 375.621 340.923L395.247 360.549C399.933 365.235 407.531 365.235 412.218 360.549L508.487 264.485C513.173 259.799 513.173 252.201 508.487 247.514L412.218 151.4500000000001C407.532 146.7640000000001 399.934 146.7640000000001 395.247 151.4500000000001L375.621 171.076C370.868 175.829 370.946 183.56 375.794 188.216L420.78 230V232H280V91.22H282L323.783 136.206C328.439 141.055 336.17 141.1330000000001 340.923 136.379L360.549 116.7530000000001C365.236 112.068 365.236 104.47 360.549 99.7840000000001z" />
    <glyph glyph-name="asterisk"
      unicode="&#xF069;"
      horiz-adv-x="512" d=" M479.31 154.784L303.999 256L479.309 357.2150000000001C485.049 360.529 487.015 367.868 483.701 373.607L471.701 394.392C468.387 400.132 461.048 402.098 455.309 398.784L280 297.569V500C280 506.627 274.627 512 268 512H244C237.373 512 232 506.627 232 500V297.569L56.69 398.785C50.95 402.099 43.611 400.132 40.298 394.3930000000001L28.298 373.608C24.984 367.868 26.951 360.529 32.69 357.216L208 256L32.69 154.784C26.95 151.47 24.984 144.131 28.298 138.392L40.298 117.608C43.612 111.869 50.951 109.902 56.69 113.216L232 214.431V12C232 5.373 237.373 0 244 0H268C274.627 0 280 5.373 280 12V214.431L455.31 113.216C461.05 109.902 468.388 111.869 471.702 117.608L483.702 138.392C487.016 144.131 485.049 151.471 479.31 154.784z" />
    <glyph glyph-name="at"
      unicode="&#xF1FA;"
      horiz-adv-x="512" d=" M504 280C504 416.249 394.053 504 256 504C118.94 504 8 393.081 8 256C8 118.941 118.919 8 256 8C308.926 8 360.681 25.079 403.096 56.321C408.597 60.3730000000001 409.519 68.245 405.1910000000001 73.532L389.9670000000001 92.129C385.9120000000001 97.083 378.718 97.932 373.5390000000001 94.17C339.5470000000001 69.483 298.238 56 256 56C145.72 56 56 145.72 56 256S145.72 456 256 456C365.469 456 456 390.98 456 280C456 216.894 413.522 181.71 372.98 181.71C353.475 181.71 352.8470000000001 194.33 356.6140000000001 213.173L385.235 361.73C386.661 369.132 380.99 376 373.452 376H334.277A12.005 12.005 0 0 1 322.493 366.265C321.391 360.542 320.832 357.929 320.213 352.272C308.29 371.82 284.3350000000001 383.3400000000001 255.011 383.3400000000001C183.412 383.3400000000001 120 320.851 120 230.4700000000001C120 169.311 152.877 128.36 213.18 128.36C242.983 128.36 274.524 145.193 292.929 170.599C297.074 139.753 321.426 132.589 352.301 132.589C451.467 132.59 504 196.214 504 280zM230.1 182.65C201.628 182.65 184.63 202.108 184.63 234.7C184.63 292.214 224.19 328.11 259.24 328.11C289.36 328.11 304.711 306.578 304.711 276.53C304.711 229.666 271.534 182.65 230.1 182.65z" />
    <glyph glyph-name="backward"
      unicode="&#xF04A;"
      horiz-adv-x="512" d=" M267.5 230.8L459.5 71.4C480.1 54.2 512 68.6 512 96V416C512 443.4 480.1 457.8 459.5 440.6L267.5 280C252.2 267.2 252.2 243.6 267.5 230.8zM464 381.7V130L313 255.4L464 381.7zM11.5 230.8L203.5 71.4C224.1 54.2 256 68.6 256 96V416C256 443.4 224.1 457.8 203.5 440.6L11.5 280C-3.8 267.2 -3.8 243.6 11.5 230.8zM208 381.7V130L57 255.4L208 381.7z" />
    <glyph glyph-name="badge-check"
      unicode="&#xF336;"
      horiz-adv-x="512" d=" M512 256C512 292.4600000000001 493.165 324.355 465.284 342.695C472.073 375.588 462.642 411.397 437.019 437.019C411.36 462.677 375.5420000000001 472.064 342.695 465.284C324.246 493.333 292.255 512 256 512C219.714 512 187.737 493.308 169.305 465.284C136.398 472.073 100.6 462.637 74.981 437.019C49.323 411.362 39.937 375.541 46.716 342.695C18.635 324.223 0 292.2200000000001 0 256C0 219.716 18.689 187.739 46.716 169.305C39.926 136.411 49.361 100.601 74.981 74.981C100.609 49.353 136.207 39.901 169.307 46.713C187.774 18.64 219.779 0 256 0C292.402 0 324.326 18.792 342.693 46.713C375.81 39.8970000000001 411.405 49.366 437.019 74.981C462.675 100.637 472.063 136.458 465.284 169.305C493.363 187.774 512 219.78 512 256zM403.818 194.768C412.89 174.7790000000001 434.119 139.961 403.078 108.922C374.993 80.834 347.742 94.333 317.232 108.1830000000001C309.513 87.625 299.912 48 256 48C210.676 48 201.29 90.814 194.768 108.183C173.69 98.615 139.859 77.983 108.922 108.922C76.883 140.959 100.517 177.879 108.182 194.768C87.624 202.487 48 212.088 48 256C48 301.324 90.812 310.7100000000001 108.182 317.232C99.11 337.221 77.881 372.039 108.922 403.078C140.959 435.116 177.861 411.492 194.769 403.818C202.488 424.376 212.088 464 256 464C301.324 464 310.709 421.187 317.231 403.818C337.22 412.891 372.039 434.12 403.078 403.078C435.117 371.041 411.483 334.121 403.818 317.232C424.376 309.5130000000001 464 299.9120000000001 464 256C464 210.676 421.188 201.29 403.818 194.768zM387.82 310.685L215.232 139.481C210.526 134.814 202.929 134.844 198.261 139.549L107.48 231.065C102.813 235.77 102.843 243.368 107.549 248.036L130.268 270.572C134.973 275.2390000000001 142.571 275.209 147.238 270.5030000000001L207.03 210.226L348.382 350.442C353.087 355.1090000000001 360.685 355.079 365.352 350.374L387.888 327.656C392.556 322.9500000000001 392.525 315.352 387.82 310.685z" />
    <glyph glyph-name="badge"
      unicode="&#xF335;"
      horiz-adv-x="512" d=" M256 0C219.8 0 187.8 18.6 169.3 46.7C136.2 39.9 100.6 49.3 75 75C49.4 100.6 39.9 136.4 46.7 169.3C18.7 187.7 0 219.7 0 256C0 292.2 18.6 324.2 46.7 342.7C39.9 375.5 49.3 411.4 75 437C100.6 462.6 136.4 472.1 169.3 465.3C187.7 493.3 219.7 512 256 512C292.3 512 324.2 493.3 342.7 465.3C375.5 472.1 411.4 462.7 437 437C462.6 411.4 472.1 375.6 465.3 342.7C493.2 324.4 512 292.5 512 256C512 219.8 493.4 187.8 465.3 169.3C472.1 136.5 462.7 100.6 437 75C411.4 49.4 375.8 39.9 342.7 46.7C324.3 18.8 292.4 0 256 0zM194.8 108.2C201.3 90.8 210.7 48 256 48C299.9 48 309.5 87.6 317.2 108.2C347.7 94.4 375 80.9 403 108.9C434 139.9 412.8 174.8 403.7 194.7C421.1 201.2 463.9 210.6 463.9 255.9C463.9 299.8 424.3 309.4 403.7 317.1C411.4 334 435 370.9 403 402.9C372 433.9 337.1 412.7 317.2 403.6C310.7 421.2 301.3 464 256 464C212.1 464 202.5 424.4 194.8 403.8C177.9 411.5 141 435.1 109 403.1C78 372.1 99.2 337.2 108.3 317.3C90.8 310.7000000000001 48 301.3 48 256C48 212.1 87.6 202.5 108.2 194.8C100.5 177.9 76.9 141 108.9 109C139.9 78 173.7 98.6 194.8 108.2z" />
    <glyph glyph-name="balance-scale"
      unicode="&#xF24E;"
      horiz-adv-x="576" d=" M312 356.67C335.451 366.166 352 389.144 352 416H468C474.627 416 480 421.373 480 428V452C480 458.627 474.627 464 468 464H330.3090000000001C306.125 485.334 269.889 485.346 245.6900000000001 464H108C101.373 464 96 458.627 96 452V428C96 421.373 101.373 416 108 416H224C224 389.144 240.549 366.166 264 356.67V80H108C101.373 80 96 74.627 96 68V44C96 37.373 101.373 32 108 32H468C474.627 32 480 37.373 480 44V68C480 74.627 474.627 80 468 80H312V356.67zM288 432C296.822 432 304 424.822 304 416S296.822 400 288 400S272 407.178 272 416S279.178 432 288 432zM224 208H223.981C223.982 223.664 224.162 219.008 154.933 357.466C137.286 392.76 86.747 392.824 69.068 357.466C-0.151 219.029 0.019 223.666 0.019 208H0C0 163.817 50.144 128 112 128S224 163.817 224 208zM112 336L176 208H48L112 336zM575.981 208C575.982 223.664 576.162 219.008 506.933 357.466C489.286 392.76 438.747 392.824 421.068 357.466C351.849 219.029 352.018 223.666 352.019 208H352C352 163.817 402.144 128 464 128S576 163.817 576 208H575.981zM464 336L528 208H400L464 336z" />
    <glyph glyph-name="ban"
      unicode="&#xF05E;"
      horiz-adv-x="512" d=" M256 504C119.033 504 8 392.967 8 256S119.033 8 256 8S504 119.033 504 256S392.967 504 256 504zM397.421 397.421C470.597 324.246 474.471 210.12 413.385 132.556L132.556 413.385C210.144 474.49 324.265 470.578 397.4210000000001 397.421zM114.579 114.579C41.403 187.754 37.529 301.88 98.615 379.444L379.444 98.615C301.856 37.51 187.735 41.422 114.579 114.579z" />
    <glyph glyph-name="barcode"
      unicode="&#xF02A;"
      horiz-adv-x="512" d=" M0 64V448H18V64H0zM26.857 64.273V448H36V64.273H26.857zM54 64.273V448H62.857V64.273H54zM98.857 64.273V448H107.714V64.273H98.857zM134.857 64.273V448H152.571V64.273H134.857zM179.714 64.273V448H188.571V64.273H179.714zM197.714 64.273V448H206.571V64.273H197.714zM215.714 64.273V448H224.571V64.273H215.714zM251.429 64.273V448H269.429V64.273H251.429zM296.286 64.273V448H314.286V64.273H296.286zM332.2850000000001 64.273V448H350.286V64.273H332.2850000000001zM368.286 64.273V448H386.287V64.273H368.286zM395.1430000000001 64.273V448H413.1430000000001V64.273H395.1430000000001zM440.2860000000001 64.273V448H467.143V64.273H440.2860000000001zM476.0000000000001 64.273V448H485.143V64.273H476zM494.0000000000001 64V448H512V64H494z" />
    <glyph glyph-name="bars"
      unicode="&#xF0C9;"
      horiz-adv-x="448" d=" M436 388H12C5.373 388 0 393.373 0 400V432C0 438.627 5.373 444 12 444H436C442.627 444 448 438.627 448 432V400C448 393.373 442.627 388 436 388zM436 228H12C5.373 228 0 233.373 0 240V272C0 278.627 5.373 284 12 284H436C442.627 284 448 278.627 448 272V240C448 233.373 442.627 228 436 228zM436 68H12C5.373 68 0 73.373 0 80V112C0 118.627 5.373 124 12 124H436C442.627 124 448 118.627 448 112V80C448 73.373 442.627 68 436 68z" />
    <glyph glyph-name="bath"
      unicode="&#xF2CD;"
      horiz-adv-x="512" d=" M500 256H80V400C80 417.645 94.355 432 112 432C123.351 432 133.332 426.055 139.015 417.12C122.523 391.913 124.328 357.544 145.853 334.0850000000001C141.677 329.372 141.832 322.169 146.344 317.6570000000001L157.658 306.343C162.344 301.6570000000001 169.942 301.6570000000001 174.629 306.343L269.659 401.372C274.345 406.058 274.345 413.656 269.659 418.343L258.345 429.6570000000001C253.833 434.169 246.63 434.323 241.917 430.148C223.968 446.617 199.623 451.577 177.739 445.5130000000001C163.281 466.333 139.212 480 112 480C67.888 480 32 444.112 32 400V256H12C5.373 256 0 250.627 0 244V220C0 213.373 5.373 208 12 208H32V160C32 127.881 47.777 99.45 72 82.023V44C72 37.373 77.373 32 84 32H108C114.627 32 120 37.373 120 44V64.334C122.638 64.116 125.305 64 128 64H384C386.695 64 389.362 64.117 392 64.334V44C392 37.373 397.373 32 404 32H428C434.627 32 440 37.373 440 44V82.023C464.223 99.4500000000001 480 127.881 480 160V208H500C506.627 208 512 213.373 512 220V244C512 250.627 506.627 256 500 256zM176.202 399.799C186.598 410.1960000000001 202.755 410.525 213.54 401.824L174.177 362.461C165.452 373.274 165.829 389.427 176.202 399.799zM432 160C432 133.533 410.467 112 384 112H128C101.533 112 80 133.533 80 160V208H432V160z" />
    <glyph glyph-name="battery-bolt"
      unicode="&#xF374;"
      horiz-adv-x="640" d=" M445.394 288.478L304.616 42.481C301.094 35.827 294.673 32 287.993 32C275.727 32 266.44 44.557 269.316 57.843L306.163 224.225H211.202C199.602 224.225 190.636 235.411 192.1709999999999 248L217.768 461.775C219.04 472.208 227.177 480 236.8 480H345.6C358.204 480 367.4000000000001 466.913 364.1520000000001 453.589L336.4580000000001 320H428.779C443.564 320 452.79 302.45 445.394 288.478zM48 368H158.197L163.944 416H48C21.49 416 0 394.51 0 368V144C0 117.49 21.49 96 48 96H228.604L239.234 144H48V368zM616 352H608V368C608 394.51 586.51 416 560 416H405.38L395.429 368H560V304H592V208H560V144H418.017L390.548 96H560C586.51 96 608 117.49 608 144V160H616C629.255 160 640 170.745 640 184V328C640 341.255 629.255 352 616 352z" />
    <glyph glyph-name="battery-empty"
      unicode="&#xF244;"
      horiz-adv-x="640" d=" M560 368V304H592V208H560V144H48V368H560M560 416H48C21.49 416 0 394.51 0 368V144C0 117.49 21.49 96 48 96H560C586.51 96 608 117.49 608 144V160H616C629.255 160 640 170.745 640 184V328C640 341.255 629.255 352 616 352H608V368C608 394.51 586.51 416 560 416z" />
    <glyph glyph-name="battery-full"
      unicode="&#xF240;"
      horiz-adv-x="640" d=" M560 368V304H592V208H560V144H48V368H560M560 416H48C21.49 416 0 394.51 0 368V144C0 117.49 21.49 96 48 96H560C586.51 96 608 117.49 608 144V160H616C629.255 160 640 170.745 640 184V328C640 341.255 629.255 352 616 352H608V368C608 394.51 586.51 416 560 416zM512 320H96V192H512V320z" />
    <glyph glyph-name="battery-half"
      unicode="&#xF242;"
      horiz-adv-x="640" d=" M320 192H96V320H320V192zM560 368H48V144H560V208H592V304H560V368M560 416C586.51 416 608 394.51 608 368V352H616C629.255 352 640 341.255 640 328V184C640 170.745 629.255 160 616 160H608V144C608 117.49 586.51 96 560 96H48C21.49 96 0 117.49 0 144V368C0 394.51 21.49 416 48 416H560z" />
    <glyph glyph-name="battery-quarter"
      unicode="&#xF243;"
      horiz-adv-x="640" d=" M224 192H96V320H224V192zM560 368H48V144H560V208H592V304H560V368M560 416C586.51 416 608 394.51 608 368V352H616C629.255 352 640 341.255 640 328V184C640 170.745 629.255 160 616 160H608V144C608 117.49 586.51 96 560 96H48C21.49 96 0 117.49 0 144V368C0 394.51 21.49 416 48 416H560z" />
    <glyph glyph-name="battery-slash"
      unicode="&#xF375;"
      horiz-adv-x="640" d=" M313.616 144L349.229 96H48C21.49 96 0 117.49 0 144V368C0 394.51 21.49 416 48 416H111.81L147.423 368H48V144H313.616zM640 328V184C640 170.745 629.255 160 616 160H608V144C608 117.49 586.51 96 560 96H468.422L514.951 33.287C518.9 27.965 517.7860000000001 20.449 512.464 16.5L493.412 2.364A11.95 11.95 0 0 0 486.271 0C482.601 0 478.979 1.677 476.624 4.851L125.049 478.714C121.1 484.037 122.214 491.553 127.536 495.501L146.588 509.636A11.944 11.944 0 0 0 153.729 512C157.399 512 161.021 510.323 163.376 507.149L231.002 416H560C586.51 416 608 394.51 608 368V352H616C629.255 352 640 341.255 640 328zM592 304H560V368H266.615L432.809 144H560V208H592V304z" />
    <glyph glyph-name="battery-three-quarters"
      unicode="&#xF241;"
      horiz-adv-x="640" d=" M416 192H96V320H416V192zM560 368H48V144H560V208H592V304H560V368M560 416C586.51 416 608 394.51 608 368V352H616C629.255 352 640 341.255 640 328V184C640 170.745 629.255 160 616 160H608V144C608 117.49 586.51 96 560 96H48C21.49 96 0 117.49 0 144V368C0 394.51 21.49 416 48 416H560z" />
    <glyph glyph-name="bed"
      unicode="&#xF236;"
      horiz-adv-x="576" d=" M48 436V192H564C570.627 192 576 186.627 576 180V64H528V144H48V64H0V436C0 442.627 5.373 448 12 448H36C42.627 448 48 442.627 48 436zM80 320C80 373.019 122.981 416 176 416S272 373.019 272 320S229.019 224 176 224S80 266.981 80 320zM128 320C128 293.533 149.533 272 176 272S224 293.533 224 320S202.467 368 176 368S128 346.467 128 320zM576 288V224H288V360C288 373.255 298.745 384 312 384H480C533.019 384 576 341.019 576 288zM528 288C528 314.467 506.467 336 480 336H336V272H528V288z" />
    <glyph glyph-name="beer"
      unicode="&#xF0FC;"
      horiz-adv-x="448" d=" M152 360V152C152 138.745 141.255 128 128 128S104 138.745 104 152V360C104 373.255 114.745 384 128 384S152 373.255 152 360zM224 384C210.745 384 200 373.255 200 360V152C200 138.745 210.745 128 224 128S248 138.745 248 152V360C248 373.255 237.255 384 224 384zM448 344V198.712C448 170.727 431.582 145.066 406.173 133.339L352 108.336V80C352 53.49 330.51 32 304 32H48C21.49 32 0 53.49 0 80V432C0 458.51 21.49 480 48 480H304C330.51 480 352 458.51 352 432V416H376C415.701 416 448 383.701 448 344zM298 432H54C50.686 432 48 429.322 48 426.008V85.992A5.993 5.993 0 0 1 54 80H298A6 6 0 0 1 304 86V426A6 6 0 0 1 298 432zM400 344C400 357.233 389.233 368 376 368H352V161.202L386.058 176.921C394.528 180.83 400 189.384 400 198.712V344z" />
    <glyph glyph-name="bell-slash"
      unicode="&#xF1F6;"
      horiz-adv-x="576" d=" M130.9 112C114.138 112 105.765 132.39 117.566 144.191C142.792 169.417 163.66 193.5290000000001 168.215 265.6710000000001L121.438 306.9450000000001A168.48 168.48 0 0 1 121.142 297.1430000000001C121.142 215.21 103.591 197.8510000000001 86.599 181.0650000000001C38.504 133.559 73.726 64 130.919 64H224C224 28.654 252.654 0 288 0S352 28.654 352 64H396.777L342.377 112H130.9zM288 40C274.766 40 264 50.766 264 64H312C312 50.766 301.234 40 288 40zM571.867 39.447L503.936 99.018C517.04 123.136 515.4599999999999 155.336 489.404 181.0600000000001C472.415 197.8450000000001 454.858 215.2030000000001 454.858 297.1430000000001C454.858 380.1690000000001 393.9 449.2170000000001 314.391 461.9050000000001A31.848 31.848 0 0 1 320 480C320 497.673 305.673 512 288 512S256 497.673 256 480A31.848 31.848 0 0 1 261.609 461.905C220.138 455.287 183.718 433.334 158.36 402.064L36.459 508.963C31.401 513.399 23.682 512.919 19.219 507.892L3.056 489.687C-1.407 484.66 -0.925 476.988 4.134 472.553L539.542 3.037C544.6 -1.399 552.3190000000001 -0.919 556.782 4.108L572.945 22.313C577.407 27.34 576.9250000000001 35.012 571.8670000000001 39.447zM288 416C353.538 416 406.857 362.681 406.857 297.1430000000001C406.857 199.493 430.078 172.569 458.425 144.191C461.333 141.283 462.9979999999999 137.8630000000001 463.634 134.359L194.482 370.3880000000001C216.258 398.133 250.075 416 288 416z" />
    <glyph glyph-name="bell"
      unicode="&#xF0F3;"
      horiz-adv-x="448" d=" M425.403 181.061C408.4140000000001 197.846 390.8570000000001 215.204 390.8570000000001 297.144C390.8570000000001 380.17 329.899 449.218 250.39 461.9059999999999A31.842999999999996 31.842999999999996 0 0 1 256 480C256 497.673 241.673 512 224 512S192 497.673 192 480A31.848 31.848 0 0 1 197.609 461.905C118.101 449.217 57.143 380.169 57.143 297.1430000000001C57.143 215.21 39.592 197.851 22.6 181.065C-25.496 133.559 9.726 64 66.919 64H160C160 28.654 188.654 0 224 0C259.346 0 288 28.654 288 64H381.08C438.27 64 473.495 133.583 425.403 181.061zM224 40C210.766 40 200 50.766 200 64H248C248 50.766 237.234 40 224 40zM381.092 112H66.9C50.138 112 41.765 132.39 53.566 144.191C82.151 172.776 105.143 199.915 105.143 297.1430000000001C105.143 362.6810000000001 158.462 416 224 416S342.857 362.681 342.857 297.1430000000001C342.857 199.493 366.078 172.569 394.425 144.191C406.278 132.339 397.783 112 381.092 112z" />
    <glyph glyph-name="birthday-cake"
      unicode="&#xF1FD;"
      horiz-adv-x="448" d=" M192 448C192 479 224 471 224 512C236 512 256 482.5 256 456S241.75 416 224 416S192 430.25 192 448zM352 416C369.75 416 384 429.5 384 456S364 512 352 512C352 471 320 479 320 448C320 430.25 334.25 416 352 416zM448 240V0H0V240C0 266.5 21.5 288 48 288H72V400H120V288H200V400H248V288H328V400H376V288H400C426.5 288 448 266.5 448 240zM48 234V177.169C56.352 170.169 63.27 164 74.75 164C100.128 164 104.88 196 149.5 196C193.474 196 199.254 164 224 164C249.588 164 254.061 196 298.75 196C343.223 196 348.079 164 373.5 164C384.758 164 391.635 170.18 400 177.187V233.992A6 6 0 0 1 394 239.992L54 240A6 6 0 0 1 48 234zM400 48V128.87C392.999 125.956 384.46 124 373.5 124C328.956 124 324.111 156 298.75 156C273.606 156 268.421 124 224 124C180.026 124 174.245 156 149.5 156C123.913 156 119.438 124 74.75 124C63.666 124 55.052 125.974 48 128.911V48H400zM96 416C113.75 416 128 429.5 128 456S108 512 96 512C96 471 64 479 64 448C64 430.25 78.25 416 96 416z" />
    <glyph glyph-name="bold"
      unicode="&#xF032;"
      horiz-adv-x="384" d=" M292 268.467C330.106 287.0940000000001 350.232 323.7200000000001 350.232 365.779C350.232 414.005 324.216 450.81 288.68 466.674C266.471 476.827 242.357 480 209.995 480H28C21.373 480 16 474.627 16 468V444C16 437.373 21.373 432 28 432H62.142V80H28C21.373 80 16 74.627 16 68V44C16 37.373 21.373 32 28 32H218.244C242.992 32 263.932 33.269 285.508 40.249C331.83 56.113 368 100.533 368 159.547C368 217.798 334.025 258.649 292 268.4670000000001zM125.598 427.966H209.994C229.031 427.966 243.625 425.428 256.317 419.082C275.637 408.134 285.808 385.421 285.5 358.902C285.066 321.429 253.97 291.535 216.495 291.535H125.598V427.966zM260.759 90.38C248.703 85.303 233.473 84.034 220.782 84.034H125.598V239.501H225.859C272.8160000000001 239.501 303.275 209.043 303.275 162.72C303.275 129.088 286.776 101.168 260.759 90.38z" />
    <glyph glyph-name="bolt"
      unicode="&#xF0E7;"
      horiz-adv-x="320" d=" M186.071 464L147.405 320H272L120 48L174.675 256H48L67.72 464H186.071M186.071 512H67.72C42.965 512 22.271 493.175 19.934 468.531L0.218 260.531C-2.453 232.358 19.729 208 48.004 208H112.427L73.577 60.21C65.531 29.602 88.788 0 119.983 0C136.926 0 153.192 9.005 161.902 24.592L313.847 296.585C331.704 328.539 308.555 368 271.945 368H209.994L232.429 451.552C240.598 481.974 217.678 512 186.071 512z" />
    <glyph glyph-name="bomb"
      unicode="&#xF1E2;"
      horiz-adv-x="512" d=" M384.5 367.5L440.5 423.5L423.5 440.5L367.5 384.5L315.3 436.7C309.1 442.9 298.9000000000001 442.9 292.7 436.7L264.3 408.3C246.4 413.3 227.5 416 208 416C93.1 416 0 322.9 0 208S93.1 0 208 0S416 93.1 416 208C416 227.5 413.3 246.4 408.3 264.3L436.7 292.7000000000001C442.9 298.9 442.9 309.1 436.7 315.3L384.5 367.5zM354.5 278.4C362.4 250.2 368 234.5 368 208C368 119.6 296.4 48 208 48S48 119.6 48 208S119.6 368 208 368C234.3 368 249.4 362.6 278.4 354.5L304 380.1L380.1 304L354.5 278.4zM512 440C512 433.4 506.6 428 500 428H476C469.4 428 464 433.4 464 440S469.4 452 476 452H500C506.6 452 512 446.6 512 440zM452 500V476C452 469.4 446.6 464 440 464S428 469.4 428 476V500C428 506.6 433.4 512 440 512S452 506.6 452 500zM457 457C452.3 461.7 452.3 469.3 457 474L474 491C478.7 495.7 486.3 495.7 491 491C495.7 486.3 495.7 478.7 491 474L474 457C469.3 452.3 461.7 452.3 457 457zM389.1 473.9C384.4000000000001 478.6 384.4000000000001 486.2 389.1 490.9C393.8 495.6 401.4000000000001 495.6 406.1 490.9L423.1 473.9C427.8 469.2 427.8 461.6 423.1 456.9C418.4000000000001 452.2 410.8 452.2 406.1 456.9L389.1 473.9zM490.9 406.1C495.6 401.4 495.6 393.8 490.9 389.1C486.2 384.4 478.6 384.4 473.9 389.1L456.9 406.1C452.2 410.8 452.2 418.4 456.9 423.1C461.6 427.8 469.2 427.8 473.9 423.1L490.9 406.1zM216 304C216 290.7 205.3 280 192 280C161.1 280 136 254.9 136 224C136 210.7 125.3 200 112 200S88 210.7 88 224C88 281.3 134.7 328 192 328C205.3 328 216 317.3 216 304z" />
    <glyph glyph-name="book"
      unicode="&#xF02D;"
      horiz-adv-x="448" d=" M128 360V392C128 396.4 131.6 400 136 400H344C348.4 400 352 396.4 352 392V360C352 355.6 348.4 352 344 352H136C131.6 352 128 355.6 128 360zM136 272H344C348.4 272 352 275.6 352 280V312C352 316.4 348.4 320 344 320H136C131.6 320 128 316.4 128 312V280C128 275.6 131.6 272 136 272zM435.1 112.3C430.9000000000001 99.3 430.9000000000001 60.7 435.1 47.7C442.4000000000001 46.3000000000001 448 39.8000000000001 448 32.0000000000001V16.0000000000001C448 7.2 440.8 1e-13 432 1e-13H80C35.8 1e-13 0 35.8000000000001 0 80.0000000000001V432C0 476.2 35.8 512 80 512H432C440.8 512 448 504.8 448 496V128C448 120.2 442.5 113.8 435.1 112.3zM394 112H80C62.4 112 48 97.6 48 80C48 62.3 62.3 48 80 48H394C391.3 65.3 391.3 94.7 394 112zM400 464H80C62.3 464 48 449.7 48 432V153.3C57.8 157.6 68.6 160 80 160H400V464z" />
    <glyph glyph-name="bookmark"
      unicode="&#xF02E;"
      horiz-adv-x="384" d=" M336 512H48C21.49 512 0 490.51 0 464V0L192 112L384 0V464C384 490.51 362.51 512 336 512zM336 83.57L192 167.57L48 83.57V458A6 6 0 0 0 54 464H330C333.314 464 336 461.317 336 458.004V83.57z" />
    <glyph glyph-name="briefcase"
      unicode="&#xF0B1;"
      horiz-adv-x="512" d=" M464 416H352V432C352 458.51 330.51 480 304 480H208C181.49 480 160 458.51 160 432V416H48C21.49 416 0 394.51 0 368V80C0 53.49 21.49 32 48 32H464C490.51 32 512 53.49 512 80V368C512 394.51 490.51 416 464 416zM208 432H304V416H208V432zM48 362A6 6 0 0 0 54 368H458A6 6 0 0 0 464 362V256H48V362zM464 86A6 6 0 0 0 458 80H54A6 6 0 0 0 48 86V208H192V172C192 165.373 197.373 160 204 160H308C314.627 160 320 165.373 320 172V208H464V86z" />
    <glyph glyph-name="building"
      unicode="&#xF1AD;"
      horiz-adv-x="448" d=" M128 364V404C128 410.6 133.4 416 140 416H180C186.6 416 192 410.6 192 404V364C192 357.4 186.6 352 180 352H140C133.4 352 128 357.4 128 364zM268 352H308C314.6 352 320 357.4 320 364V404C320 410.6 314.6 416 308 416H268C261.4 416 256 410.6 256 404V364C256 357.4 261.4 352 268 352zM140 256H180C186.6 256 192 261.4 192 268V308C192 314.6 186.6 320 180 320H140C133.4 320 128 314.6 128 308V268C128 261.4 133.4 256 140 256zM268 256H308C314.6 256 320 261.4 320 268V308C320 314.6 314.6 320 308 320H268C261.4 320 256 314.6 256 308V268C256 261.4 261.4 256 268 256zM192 172V212C192 218.6 186.6 224 180 224H140C133.4 224 128 218.6 128 212V172C128 165.4 133.4 160 140 160H180C186.6 160 192 165.4 192 172zM268 160H308C314.6 160 320 165.4 320 172V212C320 218.6 314.6 224 308 224H268C261.4 224 256 218.6 256 212V172C256 165.4 261.4 160 268 160zM448 36V0H0V36C0 42.6 5.4 48 12 48H31.5V488C31.5 501.3 42.2 512 55.5 512H392.5C405.8 512 416.5 501.3 416.5 488V48H436C442.6 48 448 42.6 448 36zM79.5 49H192V116C192 122.6 197.4 128 204 128H244C250.6 128 256 122.6 256 116V49H368.5V463L80 464L79.5 49z" />
    <glyph glyph-name="bullhorn"
      unicode="&#xF0A1;"
      horiz-adv-x="576" d=" M576 288C576 307.4 562.3 323.5 544 327.2V464C544 490.5 522.5 512 496 512C431 456 338 384 208 384H48C21.5 384 0 362.5 0 336V240C0 213.5 21.5 192 48 192H73.8C65.7 130.9 87.1 80.5 101.3 34.7C102.5 31 104.5 27.6 107.3 24.9C144 -11.6 235 -9.9 260.3 43.2C265 53.1 262.4000000000001 64.8 254.1 71.8C218.5 101.7 216 101.8 224.2 116C229.4 125.1 228.1 136.5 221 144.2C211.2 154.8 216.4 182.4 232.1 191.1C349.6 183 435.1 116.5 496 64C522.5 64 544 85.5 544 112V248.8C562.3 252.5 576 268.6 576 288zM48 240V336H208V240H48zM145 55.9C130.5 101.1 113.7 142.7 122.4 192H174C165.8 170.5 165.7 145.9 175.9 125.8C164.9 94.6 179.2 72.4 202.4 52.3C184.5 45.2 158.6 47.3 145 55.9zM496 126.5C424.2 184.1 347.6 225.8 256 237V339C347.6 350.3 424.1 391.9 496 449.5V126.5z" />
    <glyph glyph-name="bullseye"
      unicode="&#xF140;"
      horiz-adv-x="512" d=" M256 456C366.532 456 456 366.549 456 256C456 145.468 366.549 56 256 56C145.468 56 56 145.451 56 256C56 366.532 145.451 456 256 456M256 504C119.033 504 8 392.967 8 256S119.033 8 256 8S504 119.033 504 256S392.967 504 256 504zM256 360C313.346 360 360 313.346 360 256S313.346 152 256 152S152 198.654 152 256S198.654 360 256 360M256 408C172.053 408 104 339.947 104 256S172.053 104 256 104S408 172.053 408 256S339.947 408 256 408zM256 312C225.072 312 200 286.928 200 256S225.072 200 256 200S312 225.072 312 256S286.928 312 256 312z" />
    <glyph glyph-name="calculator"
      unicode="&#xF1EC;"
      horiz-adv-x="448" d=" M400 512H48C21.5 512 0 490.5 0 464V48C0 21.5 21.5 0 48 0H400C426.5 0 448 21.5 448 48V464C448 490.5 426.5 512 400 512zM54 464H394C397.3 464 400 461.3 400 458V344H48V458C48 461.3 50.7 464 54 464zM394 48H54C50.7 48 48 50.7 48 54V296H400V54C400 50.7 397.3 48 394 48zM160 244V204C160 197.4 154.6 192 148 192H108C101.4 192 96 197.4 96 204V244C96 250.6 101.4 256 108 256H148C154.6 256 160 250.6 160 244zM256 244V204C256 197.4 250.6 192 244 192H204C197.4 192 192 197.4 192 204V244C192 250.6 197.4 256 204 256H244C250.6 256 256 250.6 256 244zM352 244V108C352 101.4 346.6 96 340 96H300C293.4 96 288 101.4 288 108V244C288 250.6 293.4 256 300 256H340C346.6 256 352 250.6 352 244zM160 148V108C160 101.4 154.6 96 148 96H108C101.4 96 96 101.4 96 108V148C96 154.6 101.4 160 108 160H148C154.6 160 160 154.6 160 148zM256 148V108C256 101.4 250.6 96 244 96H204C197.4 96 192 101.4 192 108V148C192 154.6 197.4 160 204 160H244C250.6 160 256 154.6 256 148z" />
    <glyph glyph-name="calendar-alt"
      unicode="&#xF073;"
      horiz-adv-x="448" d=" M148 224H108C101.4 224 96 229.4 96 236V276C96 282.6 101.4 288 108 288H148C154.6 288 160 282.6 160 276V236C160 229.4 154.6 224 148 224zM256 236V276C256 282.6 250.6 288 244 288H204C197.4 288 192 282.6 192 276V236C192 229.4 197.4 224 204 224H244C250.6 224 256 229.4 256 236zM352 236V276C352 282.6 346.6 288 340 288H300C293.4 288 288 282.6 288 276V236C288 229.4 293.4 224 300 224H340C346.6 224 352 229.4 352 236zM256 140V180C256 186.6 250.6 192 244 192H204C197.4 192 192 186.6 192 180V140C192 133.4 197.4 128 204 128H244C250.6 128 256 133.4 256 140zM160 140V180C160 186.6 154.6 192 148 192H108C101.4 192 96 186.6 96 180V140C96 133.4 101.4 128 108 128H148C154.6 128 160 133.4 160 140zM352 140V180C352 186.6 346.6 192 340 192H300C293.4 192 288 186.6 288 180V140C288 133.4 293.4 128 300 128H340C346.6 128 352 133.4 352 140zM448 400V48C448 21.5 426.5 0 400 0H48C21.5 0 0 21.5 0 48V400C0 426.5 21.5 448 48 448H96V500C96 506.6 101.4 512 108 512H148C154.6 512 160 506.6 160 500V448H288V500C288 506.6 293.4 512 300 512H340C346.6 512 352 506.6 352 500V448H400C426.5 448 448 426.5 448 400zM400 54V352H48V54C48 50.7 50.7 48 54 48H394C397.3 48 400 50.7 400 54z" />
    <glyph glyph-name="calendar-check"
      unicode="&#xF274;"
      horiz-adv-x="448" d=" M400 448H352V500C352 506.627 346.627 512 340 512H300C293.373 512 288 506.627 288 500V448H160V500C160 506.627 154.627 512 148 512H108C101.373 512 96 506.627 96 500V448H48C21.49 448 0 426.51 0 400V48C0 21.49 21.49 0 48 0H400C426.51 0 448 21.49 448 48V400C448 426.51 426.51 448 400 448zM394 48H54A6 6 0 0 0 48 54V352H400V54A6 6 0 0 0 394 48zM341.151 248.65L198.842 107.481C194.137 102.814 186.539 102.844 181.871 107.549L106.78 183.248C102.113 187.953 102.143 195.551 106.848 200.219L129.567 222.755C134.272 227.422 141.87 227.392 146.537 222.686L190.641 178.225L301.713 288.406C306.418 293.073 314.016 293.043 318.6840000000001 288.338L341.2200000000001 265.62C345.887 260.915 345.8560000000001 253.317 341.151 248.65z" />
    <glyph glyph-name="calendar-edit"
      unicode="&#xF333;"
      horiz-adv-x="448" d=" M243.1 277.9L289.9 231.1C291.9 229.1 291.9 225.9000000000001 289.9 223.9L175.4 109.4L127.2 104C120.8 103.3 115.3 108.7 116 115.2L121.4 163.4L235.9 277.9C237.9 279.9 241.1 279.9 243.1 277.9zM326.1 288.7000000000001L300.7000000000001 314.1C292.8000000000001 322 280.0000000000001 322 272.1 314.1L252.6 294.6C250.6 292.6 250.6 289.4000000000001 252.6 287.4000000000001L299.4000000000001 240.6C301.4000000000001 238.6 304.6 238.6 306.6 240.6L326.1 260.1C334 268 334 280.8 326.1 288.7000000000001zM448 400V48C448 21.5 426.5 0 400 0H48C21.5 0 0 21.5 0 48V400C0 426.5 21.5 448 48 448H96V500C96 506.6 101.4 512 108 512H148C154.6 512 160 506.6 160 500V448H288V500C288 506.6 293.4 512 300 512H340C346.6 512 352 506.6 352 500V448H400C426.5 448 448 426.5 448 400zM400 54V352H48V54C48 50.7 50.7 48 54 48H394C397.3 48 400 50.7 400 54z" />
    <glyph glyph-name="calendar-exclamation"
      unicode="&#xF334;"
      horiz-adv-x="448" d=" M188.6 299.3L195.1 195.3C195.5 189 200.7 184 207.1 184H240.9C247.2 184 252.5 188.9 252.9 195.3L259.4 299.3C259.8 306.2000000000001 254.3 312 247.4 312H200.6C193.7 312 188.2 306.2 188.6 299.3zM264 128C264 105.9 246.1 88 224 88S184 105.9 184 128S201.9 168 224 168S264 150.1 264 128zM400 448H352V500C352 506.6 346.6 512 340 512H300C293.4 512 288 506.6 288 500V448H160V500C160 506.6 154.6 512 148 512H108C101.4 512 96 506.6 96 500V448H48C21.5 448 0 426.5 0 400V48C0 21.5 21.5 0 48 0H400C426.5 0 448 21.5 448 48V400C448 426.5 426.5 448 400 448zM394 48H54C50.7 48 48 50.7 48 54V352H400V54C400 50.7 397.3 48 394 48z" />
    <glyph glyph-name="calendar-minus"
      unicode="&#xF272;"
      horiz-adv-x="448" d=" M124 184C117.4 184 112 189.4 112 196V220C112 226.6 117.4 232 124 232H324C330.6 232 336 226.6 336 220V196C336 189.4 330.6 184 324 184H124zM448 400V48C448 21.5 426.5 0 400 0H48C21.5 0 0 21.5 0 48V400C0 426.5 21.5 448 48 448H96V500C96 506.6 101.4 512 108 512H148C154.6 512 160 506.6 160 500V448H288V500C288 506.6 293.4 512 300 512H340C346.6 512 352 506.6 352 500V448H400C426.5 448 448 426.5 448 400zM400 54V352H48V54C48 50.7 50.7 48 54 48H394C397.3 48 400 50.7 400 54z" />
    <glyph glyph-name="calendar-plus"
      unicode="&#xF271;"
      horiz-adv-x="448" d=" M336 220V196C336 189.4 330.6 184 324 184H248V108C248 101.4 242.6 96 236 96H212C205.4 96 200 101.4 200 108V184H124C117.4 184 112 189.4 112 196V220C112 226.6 117.4 232 124 232H200V308C200 314.6 205.4 320 212 320H236C242.6 320 248 314.6 248 308V232H324C330.6 232 336 226.6 336 220zM448 400V48C448 21.5 426.5 0 400 0H48C21.5 0 0 21.5 0 48V400C0 426.5 21.5 448 48 448H96V500C96 506.6 101.4 512 108 512H148C154.6 512 160 506.6 160 500V448H288V500C288 506.6 293.4 512 300 512H340C346.6 512 352 506.6 352 500V448H400C426.5 448 448 426.5 448 400zM400 54V352H48V54C48 50.7 50.7 48 54 48H394C397.3 48 400 50.7 400 54z" />
    <glyph glyph-name="calendar-times"
      unicode="&#xF273;"
      horiz-adv-x="448" d=" M311.7 137.3L294.7 120.3C290 115.6 282.4 115.6 277.7 120.3L224 174.1L170.3 120.4C165.6 115.7000000000001 158 115.7000000000001 153.3 120.4L136.3 137.4C131.6 142.1 131.6 149.7000000000001 136.3 154.4L190 208.1L136.3 261.8C131.6 266.5 131.6 274.1 136.3 278.8L153.3 295.8C158 300.5 165.6 300.5 170.3 295.8L224 242.1L277.7 295.8C282.4 300.5 290 300.5 294.7 295.8L311.7 278.8C316.4 274.1 316.4 266.5 311.7 261.8L257.9 208L311.6 154.3C316.4 149.6 316.4 142 311.7 137.3zM448 400V48C448 21.5 426.5 0 400 0H48C21.5 0 0 21.5 0 48V400C0 426.5 21.5 448 48 448H96V500C96 506.6 101.4 512 108 512H148C154.6 512 160 506.6 160 500V448H288V500C288 506.6 293.4 512 300 512H340C346.6 512 352 506.6 352 500V448H400C426.5 448 448 426.5 448 400zM400 54V352H48V54C48 50.7 50.7 48 54 48H394C397.3 48 400 50.7 400 54z" />
    <glyph glyph-name="calendar"
      unicode="&#xF133;"
      horiz-adv-x="448" d=" M400 448H352V500C352 506.6 346.6 512 340 512H300C293.4 512 288 506.6 288 500V448H160V500C160 506.6 154.6 512 148 512H108C101.4 512 96 506.6 96 500V448H48C21.5 448 0 426.5 0 400V48C0 21.5 21.5 0 48 0H400C426.5 0 448 21.5 448 48V400C448 426.5 426.5 448 400 448zM394 48H54C50.7 48 48 50.7 48 54V352H400V54C400 50.7 397.3 48 394 48z" />
    <glyph glyph-name="camera-alt"
      unicode="&#xF332;"
      horiz-adv-x="512" d=" M256 104C189.8 104 136 157.8 136 224S189.8 344 256 344S376 290.2 376 224S322.2 104 256 104zM256 296C216.3 296 184 263.7 184 224S216.3 152 256 152S328 184.3 328 224S295.7 296 256 296zM232 224C232 237.2 242.8 248 256 248C264.8 248 272 255.2 272 264S264.8 280 256 280C225.1 280 200 254.9 200 224C200 215.2 207.2 208 216 208S232 215.2 232 224zM342.7 369H464V81H48V369H169.3L193.3 433H318.8L342.7 369zM324.3 481H193.3C173.3 481 155.4 468.6 148.4 449.9L136 417H48C21.5 417 0 395.5 0 369V81C0 54.5 21.5 33 48 33H464C490.5 33 512 54.5 512 81V369C512 395.5 490.5 417 464 417H376L361.7 455C355.9 470.7 341 481 324.3 481z" />
    <glyph glyph-name="camera-retro"
      unicode="&#xF083;"
      horiz-adv-x="512" d=" M154 432H38C34.7 432 32 434.7 32 438V474C32 477.3 34.7 480 38 480H154C157.3 480 160 477.3 160 474V438C160 434.7 157.3 432 154 432zM512 432V80C512 53.5 490.5 32 464 32H48C21.5 32 0 53.5 0 80V368C0 394.5 21.5 416 48 416H184L217.6 460.8C226.7 472.9 240.9 480 256 480H464C490.5 480 512 458.5 512 432zM464 368H48V80H464V368zM464 432H256L244 416H464V432zM376 224C376 290.2 322.2 344 256 344S136 290.2 136 224S189.8 104 256 104S376 157.8 376 224zM328 224C328 184.3 295.7 152 256 152S184 184.3 184 224S216.3 296 256 296S328 263.7 328 224zM232 224C232 237.2 242.8 248 256 248C264.8 248 272 255.2 272 264S264.8 280 256 280C225.1 280 200 254.9 200 224C200 215.2 207.2 208 216 208S232 215.2 232 224z" />
    <glyph glyph-name="camera"
      unicode="&#xF030;"
      horiz-adv-x="512" d=" M342.7 368H464V80H48V368H169.3L193.3 432H318.8L342.7 368zM324.3 480H193.3C173.3 480 155.4 467.6 148.4 448.9L136 416H48C21.5 416 0 394.5 0 368V80C0 53.5 21.5 32 48 32H464C490.5 32 512 53.5 512 80V368C512 394.5 490.5 416 464 416H376L361.7 454C355.9 469.7 341 480 324.3 480zM256 104C189.8 104 136 157.8 136 224S189.8 344 256 344S376 290.2 376 224S322.2 104 256 104zM256 296C216.3 296 184 263.7 184 224S216.3 152 256 152S328 184.3 328 224S295.7 296 256 296z" />
    <glyph glyph-name="caret-circle-down"
      unicode="&#xF32D;"
      horiz-adv-x="512" d=" M157.1 296H354.9C365.6 296 371 283 363.4 275.5L264.5 177.2C259.8 172.5 252.3 172.5 247.6 177.2L148.7 275.5C141 283 146.4 296 157.1 296zM504 256C504 119 393 8 256 8S8 119 8 256S119 504 256 504S504 393 504 256zM456 256C456 366.5 366.5 456 256 456S56 366.5 56 256S145.5 56 256 56S456 145.5 456 256z" />
    <glyph glyph-name="caret-circle-left"
      unicode="&#xF32E;"
      horiz-adv-x="512" d=" M296 354.9V157.1C296 146.4 283 141 275.5 148.6L177.2 247.5C172.5 252.2 172.5 259.7 177.2 264.4L275.5 363.3C283 371 296 365.6 296 354.9zM256 8C119 8 8 119 8 256S119 504 256 504S504 393 504 256S393 8 256 8zM256 56C366.5 56 456 145.5 456 256S366.5 456 256 456S56 366.5 56 256S145.5 56 256 56z" />
    <glyph glyph-name="caret-circle-right"
      unicode="&#xF330;"
      horiz-adv-x="512" d=" M216 157.1V354.9C216 365.6 229 371 236.5 363.4L334.8 264.5C339.5 259.8 339.5 252.3 334.8 247.6L236.5 148.7000000000001C229 141.0000000000001 216 146.4 216 157.1zM256 504C393 504 504 393 504 256S393 8 256 8S8 119 8 256S119 504 256 504zM256 456C145.5 456 56 366.5 56 256S145.5 56 256 56S456 145.5 456 256S366.5 456 256 456z" />
    <glyph glyph-name="caret-circle-up"
      unicode="&#xF331;"
      horiz-adv-x="512" d=" M354.9 216H157.1C146.4 216 141 229 148.6 236.5L247.5 334.8C252.2 339.5 259.7 339.5 264.4 334.8L363.3 236.5C371 229 365.6 216 354.9 216zM8 256C8 393 119 504 256 504S504 393 504 256S393 8 256 8S8 119 8 256zM56 256C56 145.5 145.5 56 256 56S456 145.5 456 256S366.5 456 256 456S56 366.5 56 256z" />
    <glyph glyph-name="caret-down"
      unicode="&#xF0D7;"
      horiz-adv-x="320" d=" M272 352H48.1C5.5 352 -16.1 300.3 14.2 270.1L126.1 158.1C144.8 139.4 175.2 139.4 194 158.1L306 270.1C336 300.2000000000001 314.7 352 272 352zM160 192L48 304H272L160 192z" />
    <glyph glyph-name="caret-left"
      unicode="&#xF0D9;"
      horiz-adv-x="224" d=" M224 144.048V367.943C224 410.581 172.269 432.094 142.059 401.884L30.059 289.9410000000001C11.314 271.1960000000001 11.313 240.8040000000001 30.059 222.059L142.059 110.107C172.208 79.958 224 101.325 224 144.048zM64 256L176 368V144L64 256z" />
    <glyph glyph-name="caret-right"
      unicode="&#xF0DA;"
      horiz-adv-x="224" d=" M0 367.952V144.057C0 101.419 51.731 79.906 81.941 110.116L193.941 222.059C212.686 240.804 212.687 271.196 193.941 289.941L81.941 401.893C51.792 432.0420000000001 0 410.675 0 367.952zM160 256L48 144V368L160 256z" />
    <glyph glyph-name="caret-square-down"
      unicode="&#xF150;"
      horiz-adv-x="448" d=" M125.1 304H322.9C333.6 304 339 291 331.4 283.5L232.5 185.2C227.8 180.5 220.3 180.5 215.6 185.2L116.7 283.5C109 291 114.4 304 125.1 304zM448 432V80C448 53.5 426.5 32 400 32H48C21.5 32 0 53.5 0 80V432C0 458.5 21.5 480 48 480H400C426.5 480 448 458.5 448 432zM400 86V426C400 429.3 397.3 432 394 432H54C50.7 432 48 429.3 48 426V86C48 82.7 50.7 80 54 80H394C397.3 80 400 82.7 400 86z" />
    <glyph glyph-name="caret-square-left"
      unicode="&#xF191;"
      horiz-adv-x="448" d=" M272 354.9V157.1C272 146.4 259 141 251.5 148.6L153.2 247.5C148.5 252.2 148.5 259.7 153.2 264.4L251.5 363.3C259 371 272 365.6 272 354.9zM448 432V80C448 53.5 426.5 32 400 32H48C21.5 32 0 53.5 0 80V432C0 458.5 21.5 480 48 480H400C426.5 480 448 458.5 448 432zM400 86V426C400 429.3 397.3 432 394 432H54C50.7 432 48 429.3 48 426V86C48 82.7 50.7 80 54 80H394C397.3 80 400 82.7 400 86z" />
    <glyph glyph-name="caret-square-right"
      unicode="&#xF152;"
      horiz-adv-x="448" d=" M176 157.1V354.9C176 365.6 189 371 196.5 363.4L294.8 264.5C299.5 259.8 299.5 252.3 294.8 247.6L196.5 148.7000000000001C189 141.0000000000001 176 146.4 176 157.1zM448 432V80C448 53.5 426.5 32 400 32H48C21.5 32 0 53.5 0 80V432C0 458.5 21.5 480 48 480H400C426.5 480 448 458.5 448 432zM400 86V426C400 429.3 397.3 432 394 432H54C50.7 432 48 429.3 48 426V86C48 82.7 50.7 80 54 80H394C397.3 80 400 82.7 400 86z" />
    <glyph glyph-name="caret-square-up"
      unicode="&#xF151;"
      horiz-adv-x="448" d=" M322.9 208H125.1C114.4 208 109 221 116.6 228.5L215.5 326.8C220.2 331.5 227.7 331.5 232.4 326.8L331.3 228.5C339 221 333.6 208 322.9000000000001 208zM448 432V80C448 53.5 426.5 32 400 32H48C21.5 32 0 53.5 0 80V432C0 458.5 21.5 480 48 480H400C426.5 480 448 458.5 448 432zM400 86V426C400 429.3 397.3 432 394 432H54C50.7 432 48 429.3 48 426V86C48 82.7 50.7 80 54 80H394C397.3 80 400 82.7 400 86z" />
    <glyph glyph-name="caret-up"
      unicode="&#xF0D8;"
      horiz-adv-x="320" d=" M48.048 160H271.943C314.581 160 336.094 211.731 305.884 241.9410000000001L193.941 353.9410000000001C175.196 372.6860000000001 144.804 372.687 126.059 353.9410000000001L14.107 241.9410000000001C-16.042 211.792 5.325 160 48.048 160zM160 320L272 208H48L160 320z" />
    <glyph glyph-name="cart-arrow-down"
      unicode="&#xF218;"
      horiz-adv-x="576" d=" M551.991 448H144.28L135.554 492.608C133.35 503.872 123.478 512 112 512H12C5.373 512 0 506.627 0 500V476C0 469.373 5.373 464 12 464H92.24L161.834 108.299C150.796 96.799 144 81.198 144 64C144 28.654 172.654 0 208 0S272 28.654 272 64A63.681 63.681 0 0 1 263.417 96H408.584A63.681 63.681 0 0 1 400.0009999999999 64C400.0009999999999 28.654 428.6549999999999 0 464.0009999999999 0C499.3469999999999 0 528.001 28.654 528.001 64C528.001 82.136 520.4449999999999 98.496 508.325 110.142L509.36 114.899C512.614 129.859 501.218 144 485.908 144H203.76L194.37 192H506.775C518.0649999999999 192 527.829 199.869 530.227 210.902L575.443 418.902C578.695 433.861 567.299 448 551.991 448zM208 40C194.766 40 184 50.766 184 64S194.766 88 208 88S232 77.234 232 64S221.234 40 208 40zM464 40C450.766 40 440 50.766 440 64S450.766 88 464 88S488 77.234 488 64S477.234 40 464 40zM487.438 240H184.98L153.67 400H522.218L487.438 240zM395.515 299.515L344.486 248.486C339.8 243.8 332.202 243.8 327.515 248.486L276.486 299.515C268.926 307.075 274.28 320 284.971 320H312V372C312 378.627 317.373 384 324 384H348C354.627 384 360 378.627 360 372V320H387.029C397.72 320 403.074 307.074 395.515 299.515z" />
    <glyph glyph-name="cart-plus"
      unicode="&#xF217;"
      horiz-adv-x="576" d=" M551.991 448H144.28L135.554 492.608C133.35 503.872 123.478 512 112 512H12C5.373 512 0 506.627 0 500V476C0 469.373 5.373 464 12 464H92.24L161.834 108.299C150.796 96.799 144 81.198 144 64C144 28.654 172.654 0 208 0S272 28.654 272 64A63.681 63.681 0 0 1 263.417 96H408.584A63.681 63.681 0 0 1 400.0009999999999 64C400.0009999999999 28.654 428.6549999999999 0 464.0009999999999 0S528.001 28.654 528.001 64C528.001 82.136 520.4449999999999 98.496 508.325 110.142L509.36 114.899C512.614 129.859 501.218 144 485.908 144H203.76L194.37 192H506.775C518.0649999999999 192 527.829 199.869 530.227 210.902L575.443 418.902C578.695 433.861 567.299 448 551.991 448zM464 88C477.234 88 488 77.234 488 64S477.234 40 464 40S440 50.766 440 64S450.766 88 464 88zM208 88C221.234 88 232 77.234 232 64S221.234 40 208 40S184 50.766 184 64S194.766 88 208 88zM487.438 240H184.98L153.67 400H522.218L487.438 240zM272 312V328C272 334.627 277.373 340 284 340H316V372C316 378.627 321.373 384 328 384H344C350.627 384 356 378.627 356 372V340H388C394.627 340 400 334.627 400 328V312C400 305.373 394.627 300 388 300H356V268C356 261.373 350.627 256 344 256H328C321.373 256 316 261.373 316 268V300H284C277.373 300 272 305.373 272 312z" />
    <glyph glyph-name="certificate"
      unicode="&#xF0A3;"
      horiz-adv-x="512" d=" M489.199 256.073C530.24 296.246 513.462 358.563 458.054 372.707C473.43 426.711 427.935 474 372.589 458.225C358.4100000000001 513.828 295.346 529.915 256 489.379C242.445 503.345 226.954 511.981 205.706 511.982C176.318 511.983 148.562 494.114 139.411 458.225C84.461 473.888 38.435 427.183 53.946 372.707C-1.349 358.592 -18.328 296.333 22.801 256.073C-18.145 215.993 -1.566 153.609 53.946 139.439C38.434 84.958 84.536 38.281 139.411 53.9209999999999C153.747 -2.3 216.434 -17.7140000000001 256 22.75C295.511 -17.658 358.326 -2.009 372.589 53.921C427.596 38.243 473.526 85.098 458.054 139.439C513.3489999999999 153.554 530.328 215.813 489.199 256.073zM457.994 219.499C469.127 208.96 463.944 190.2190000000001 449.329 186.7240000000001L398.426 173.732L412.775 123.345C416.83 108.854 403.168 95.18 388.676 99.237L338.306 113.591L325.319 62.671C321.794 47.921 302.711 43.045 292.555 54.003L256 91.379L219.446 54.003C209.183 43.1540000000001 190.288 47.5820000000001 186.682 62.6710000000001L173.695 113.5910000000001L123.325 99.2370000000001C108.836 95.1810000000001 95.171 108.8520000000001 99.226 123.3450000000001L113.575 173.7320000000001L62.672 186.7240000000001C48.063 190.2180000000001 42.869 208.9550000000001 54.007 219.4990000000001L91.37 256.0650000000001L54.007 292.6310000000001C42.874 303.1700000000001 48.057 321.9110000000001 62.672 325.4060000000001L113.575 338.3980000000001L99.226 388.7850000000001C95.172 403.2750000000001 108.831 416.9510000000001 123.325 412.8930000000001L173.695 398.5390000000001L186.682 449.4590000000001C190.158 464.0050000000001 209.185 468.9730000000001 219.446 458.1270000000001L256 420.475L292.554 458.127C302.936 469.101 321.882 463.837 325.318 449.459L338.305 398.539L388.675 412.893C403.163 416.949 416.829 403.278 412.774 388.785L398.425 338.398L449.3280000000001 325.406C463.937 321.912 469.1300000000001 303.175 457.9930000000001 292.631L420.6300000000001 256.065L457.994 219.499z" />
    <glyph glyph-name="chart-area"
      unicode="&#xF1FE;"
      horiz-adv-x="512" d=" M500 112C506.6 112 512 106.6 512 100V76C512 69.4 506.6 64 500 64H12C5.4 64 0 69.4 0 76V436C0 442.6 5.4 448 12 448H36C42.6 448 48 442.6 48 436V112H500zM372 383.3L288 327.3L202.9 412.4C197.4 417.9 188.1 416.8 184.1 410.1L96 256V160H480L389.7 378.1C386.7 385 378.2 387.5 372 383.3zM144 242.7L201.5 345.9L281.9 265.5C353.7 313.4 290.1 270.9 362.6 319.3L407.2 208H144V242.7z" />
    <glyph glyph-name="chart-bar"
      unicode="&#xF080;"
      horiz-adv-x="512" d=" M500 112C506.6 112 512 106.6 512 100V76C512 69.4 506.6 64 500 64H12C5.4 64 0 69.4 0 76V436C0 442.6 5.4 448 12 448H36C42.6 448 48 442.6 48 436V112H500zM144 172V244C144 250.6 138.6 256 132 256H108C101.4 256 96 250.6 96 244V172C96 165.4 101.4 160 108 160H132C138.6 160 144 165.4 144 172zM240 172V372C240 378.6 234.6 384 228 384H204C197.4 384 192 378.6 192 372V172C192 165.4 197.4 160 204 160H228C234.6 160 240 165.4 240 172zM336 172V308C336 314.6 330.6 320 324 320H300C293.4 320 288 314.6 288 308V172C288 165.4 293.4 160 300 160H324C330.6 160 336 165.4 336 172zM432 172V404C432 410.6 426.6 416 420 416H396C389.4 416 384 410.6 384 404V172C384 165.4 389.4 160 396 160H420C426.6 160 432 165.4 432 172z" />
    <glyph glyph-name="chart-line"
      unicode="&#xF201;"
      horiz-adv-x="512" d=" M500 112C506.6 112 512 106.6 512 100V76C512 69.4 506.6 64 500 64H12C5.4 64 0 69.4 0 76V436C0 442.6 5.4 448 12 448H36C42.6 448 48 442.6 48 436V112H500zM468 416H332C321.3 416 316 403.1 323.5 395.5L375.5 343.5L288 256L224 320L79 177.9L113 144L224 254.1L288 192L408.8 310.2L459.5 259.5C467.1 251.9 480 257.3 480 268V404C480 410.6 474.6 416 468 416z" />
    <glyph glyph-name="chart-pie"
      unicode="&#xF200;"
      horiz-adv-x="544" d=" M280 464C381.6 464 464 381.6 464 280H280V464M232 416V232L362.1 101.9C328.8 68.6 282.8 48 232 48C130.4 48 48 130.4 48 232S130.4 416 232 416M496 232C496 182.1 477 132.2 438.9 94.1L301 232H496M232 500V464C103.9 464 0 360.2 0 232C0 103.9 103.8 0 232 0C294.1 0 352.7 24.6 396.1 67.9L396.7000000000001 68.5L405.0000000000001 60.2L430.5000000000001 34.7C435.2000000000001 30 442.8000000000001 30 447.5000000000001 34.7L473.0000000000001 60.2C519 106.2 544.2 167.8 544.2 232V268C544.2 274.6 538.8000000000001 280 532.2 280H512.2C512.2 311.3 506.1 341.7 493.9 370.3C471 424.2 427.5 469.6 370.3 493.7C341.7 505.9 311.3 512 280 512H244C237.4 512 232 506.6 232 500z" />
    <glyph glyph-name="check-circle"
      unicode="&#xF058;"
      horiz-adv-x="512" d=" M256 504C119.033 504 8 392.967 8 256S119.033 8 256 8S504 119.033 504 256S392.967 504 256 504zM256 456C366.532 456 456 366.549 456 256C456 145.468 366.549 56 256 56C145.468 56 56 145.451 56 256C56 366.532 145.451 456 256 456M396.204 325.733L373.668 348.451C369.0010000000001 353.156 361.403 353.187 356.698 348.519L215.346 208.303L155.554 268.58C150.887 273.285 143.289 273.316 138.584 268.649L115.865 246.113C111.16 241.446 111.129 233.848 115.797 229.142L206.578 137.6259999999999C211.245 132.9209999999999 218.843 132.8899999999999 223.548 137.5579999999999L396.1370000000001 308.762C400.8410000000001 313.43 400.8710000000001 321.0279999999999 396.2040000000001 325.733z" />
    <glyph glyph-name="check-square"
      unicode="&#xF14A;"
      horiz-adv-x="448" d=" M400 480H48C21.49 480 0 458.51 0 432V80C0 53.49 21.49 32 48 32H400C426.51 32 448 53.49 448 80V432C448 458.51 426.51 480 400 480zM400 80H48V432H400V80zM364.136 321.724L191.547 150.52C186.842 145.853 179.244 145.883 174.577 150.588L83.796 242.104C79.129 246.809 79.159 254.407 83.865 259.075L106.584 281.611C111.289 286.278 118.887 286.248 123.554 281.5420000000001L183.346 221.265L324.698 361.481C329.403 366.148 337.001 366.118 341.668 361.413L364.204 338.695C368.871 333.9890000000001 368.841 326.391 364.136 321.724z" />
    <glyph glyph-name="check"
      unicode="&#xF00C;"
      horiz-adv-x="512" d=" M435.848 428.534L172.804 165.49L76.152 262.142C71.466 266.828 63.868 266.828 59.181 262.142L30.897 233.858C26.211 229.1720000000001 26.211 221.574 30.897 216.887L164.318 83.466C169.004 78.78 176.602 78.78 181.289 83.466L481.102 383.279C485.788 387.9650000000001 485.788 395.563 481.102 400.25L452.818 428.534C448.132 433.2200000000001 440.534 433.2200000000001 435.848 428.534z" />
    <glyph glyph-name="chevron-circle-down"
      unicode="&#xF13A;"
      horiz-adv-x="512" d=" M256 504C119 504 8 393 8 256S119 8 256 8S504 119 504 256S393 504 256 504zM256 56C145.5 56 56 145.5 56 256S145.5 456 256 456S456 366.5 456 256S366.5 56 256 56zM264.5 163.5L387.3 286.3C392 291 392 298.6 387.3 303.3L364.7 325.9C360 330.6 352.4 330.6 347.7 325.9L256 234.2L164.3 325.9C159.6 330.6 152 330.6 147.3 325.9L124.7 303.3C120 298.6 120 291 124.7 286.3L247.5 163.5C252.2 158.8 259.8 158.8 264.5 163.5z" />
    <glyph glyph-name="chevron-circle-left"
      unicode="&#xF137;"
      horiz-adv-x="512" d=" M504 256C504 393 393 504 256 504S8 393 8 256S119 8 256 8S504 119 504 256zM56 256C56 366.5 145.5 456 256 456S456 366.5 456 256S366.5 56 256 56S56 145.5 56 256zM163.5 264.5L286.3 387.3C291 392 298.6 392 303.3 387.3L325.9000000000001 364.7C330.6 360 330.6 352.4 325.9000000000001 347.7L234.2 256L325.9 164.3C330.6 159.6 330.6 152 325.9 147.3L303.3 124.7C298.6 120 291 120 286.3 124.7L163.5 247.5C158.8 252.2 158.8 259.8 163.5 264.5z" />
    <glyph glyph-name="chevron-circle-right"
      unicode="&#xF138;"
      horiz-adv-x="512" d=" M8 256C8 119 119 8 256 8S504 119 504 256S393 504 256 504S8 393 8 256zM456 256C456 145.5 366.5 56 256 56S56 145.5 56 256S145.5 456 256 456S456 366.5 456 256zM348.5 247.5L225.7 124.7C221 120 213.4 120 208.7 124.7L186.1 147.3C181.4 152 181.4 159.6 186.1 164.3L277.8 256L186.1 347.7C181.4 352.4 181.4 360 186.1 364.7L208.7 387.3C213.4 392 221 392 225.7 387.3L348.5 264.5C353.2 259.8 353.2 252.2 348.5 247.5z" />
    <glyph glyph-name="chevron-circle-up"
      unicode="&#xF139;"
      horiz-adv-x="512" d=" M264.5 348.5L387.3 225.7C392 221 392 213.4 387.3 208.7L364.7 186.1C360 181.4 352.4 181.4 347.7 186.1L256 277.8L164.3 186.1C159.6 181.4 152 181.4 147.3 186.1L124.7 208.7000000000001C120 213.4 120 221.0000000000001 124.7 225.7000000000001L247.5 348.5000000000001C252.2 353.2000000000001 259.8 353.2000000000001 264.5 348.5000000000001zM504 256C504 119 393 8 256 8S8 119 8 256S119 504 256 504S504 393 504 256zM456 256C456 366.5 366.5 456 256 456S56 366.5 56 256S145.5 56 256 56S456 145.5 456 256z" />
    <glyph glyph-name="chevron-double-down"
      unicode="&#xF322;"
      horiz-adv-x="448" d=" M441.9 422.3L232.5 212.9C227.8 208.2 220.2 208.2 215.5 212.9L6.1 422.3C1.4 427 1.4 434.6 6.1 439.3L25.9 459.1C30.6 463.8 38.2 463.8 42.9 459.1L224 278.4L405.1 459.1C409.8 463.8 417.4000000000001 463.8 422.1 459.1L441.9000000000001 439.3C446.6 434.6 446.6 427 441.9000000000001 422.3zM441.9 279.3L422.1 299.1C417.4 303.8 409.8 303.8 405.1 299.1L224 118.4L42.9 299.1C38.2 303.8 30.6 303.8 25.9 299.1L6.1 279.3C1.4 274.6 1.4 267 6.1 262.3L215.5 52.9C220.2 48.2 227.8 48.2 232.5 52.9L441.9 262.3C446.6 267 446.6 274.6 441.9 279.3z" />
    <glyph glyph-name="chevron-double-left"
      unicode="&#xF323;"
      horiz-adv-x="448" d=" M390.3 38.1L180.9 247.5C176.2 252.2 176.2 259.8 180.9 264.5L390.3 473.9C395 478.6 402.6 478.6 407.3 473.9L427.1 454.1C431.8 449.4 431.8 441.8 427.1 437.1L246.4 256L427.1 74.9C431.8 70.2 431.8 62.6 427.1 57.9L407.3 38.1C402.6 33.4 395 33.4 390.3 38.1zM247.3 38.1L267.1 57.9C271.8 62.6 271.8 70.2000000000001 267.1 74.9L86.4 256L267.1 437.1C271.8 441.8 271.8 449.4 267.1 454.1L247.3 473.9C242.6 478.6 235 478.6 230.3 473.9L20.9 264.5C16.2 259.8 16.2 252.2 20.9 247.5L230.3 38.1C235 33.4 242.6 33.4 247.3 38.1z" />
    <glyph glyph-name="chevron-double-right"
      unicode="&#xF324;"
      horiz-adv-x="448" d=" M57.7 473.9L267.1 264.5C271.8 259.8 271.8 252.2 267.1 247.5L57.7 38.1C53 33.4 45.4 33.4 40.7 38.1L20.9 57.9C16.2 62.6 16.2 70.2000000000001 20.9 74.9L201.6 256L20.9 437.1C16.2 441.8 16.2 449.4 20.9 454.1L40.7 473.9C45.4 478.6 53 478.6 57.7 473.9zM200.7 473.9L180.9 454.1C176.2 449.4 176.2 441.8 180.9 437.1L361.6 256L180.9 74.9C176.2 70.2 176.2 62.6 180.9 57.9L200.7 38.1C205.4 33.4 213 33.4 217.7 38.1L427.1 247.5C431.8 252.2 431.8 259.8 427.1 264.5L217.7 473.9C213 478.6 205.4 478.6 200.7 473.9z" />
    <glyph glyph-name="chevron-double-up"
      unicode="&#xF325;"
      horiz-adv-x="448" d=" M6.1 89.7L215.5 299.1C220.2 303.8 227.8 303.8 232.5 299.1L441.9 89.7C446.6 85 446.6 77.4 441.9 72.7L422.1 52.9C417.4 48.2 409.8 48.2 405.1 52.9L224 233.6L42.9 52.9C38.2 48.2 30.6 48.2 25.9 52.9L6.1 72.7C1.4 77.4 1.4 85 6.1 89.7zM6.1 232.7L25.9 212.9C30.6 208.2 38.2 208.2 42.9 212.9L224 393.6L405.1 212.9C409.8 208.2 417.4000000000001 208.2 422.1 212.9L441.9000000000001 232.7C446.6 237.4 446.6 245 441.9000000000001 249.7L232.5 459.1C227.8 463.8 220.2 463.8 215.5 459.1L6.1 249.7C1.4 245 1.4 237.4 6.1 232.7z" />
    <glyph glyph-name="chevron-down"
      unicode="&#xF078;"
      horiz-adv-x="448" d=" M441.9 344.7L422.1 364.5C417.4 369.2 409.8 369.2 405.1 364.5L224 183.8L42.9 364.5C38.2 369.2 30.6 369.2 25.9 364.5L6.1 344.7C1.4 340 1.4 332.4 6.1 327.7L215.5 118.3C220.2 113.6 227.8 113.6 232.5 118.3L441.9 327.7C446.6 332.4 446.6 340 441.9 344.7z" />
    <glyph glyph-name="chevron-left"
      unicode="&#xF053;"
      horiz-adv-x="256" d=" M231.293 38.101L251.092 57.9C255.778 62.586 255.778 70.184 251.092 74.871L70.393 256L251.092 437.13C255.778 441.8160000000001 255.778 449.414 251.092 454.101L231.293 473.9C226.607 478.586 219.009 478.586 214.322 473.9L4.908 264.485C0.222 259.799 0.222 252.201 4.908 247.514L214.322 38.1C219.009 33.414 226.607 33.414 231.293 38.101z" />
    <glyph glyph-name="chevron-right"
      unicode="&#xF054;"
      horiz-adv-x="256" d=" M24.707 473.899L4.908 454.101C0.222 449.415 0.222 441.817 4.908 437.13L185.607 256L4.908 74.87C0.222 70.184 0.222 62.586 4.908 57.899L24.707 38.1C29.393 33.414 36.991 33.414 41.678 38.1L251.092 247.514C255.778 252.2 255.778 259.798 251.092 264.485L41.678 473.899C36.991 478.586 29.393 478.586 24.707 473.899z" />
    <glyph glyph-name="chevron-square-down"
      unicode="&#xF329;"
      horiz-adv-x="448" d=" M215.5 163.5L92.7 286.3C88 291 88 298.6 92.7 303.3L115.3 325.9C120 330.6 127.6 330.6 132.3 325.9L224 234.2L315.7 325.9C320.4 330.6 328 330.6 332.7 325.9L355.3 303.3C360 298.6 360 291 355.3 286.3L232.5 163.5C227.8 158.8 220.2 158.8 215.5 163.5zM448 432V80C448 53.5 426.5 32 400 32H48C21.5 32 0 53.5 0 80V432C0 458.5 21.5 480 48 480H400C426.5 480 448 458.5 448 432zM400 86V426C400 429.3 397.3 432 394 432H54C50.7 432 48 429.3 48 426V86C48 82.7 50.7 80 54 80H394C397.3 80 400 82.7 400 86z" />
    <glyph glyph-name="chevron-square-left"
      unicode="&#xF32A;"
      horiz-adv-x="448" d=" M131.5 264.5L254.3 387.3C259 392 266.6 392 271.3 387.3L293.9000000000001 364.7C298.6 360 298.6 352.4 293.9000000000001 347.7L202.2 256L293.9 164.3C298.6 159.6 298.6 152 293.9 147.3L271.3 124.7C266.6 120 259 120 254.3 124.7L131.5 247.5C126.8 252.2 126.8 259.8 131.5 264.5zM448 432V80C448 53.5 426.5 32 400 32H48C21.5 32 0 53.5 0 80V432C0 458.5 21.5 480 48 480H400C426.5 480 448 458.5 448 432zM400 86V426C400 429.3 397.3 432 394 432H54C50.7 432 48 429.3 48 426V86C48 82.7 50.7 80 54 80H394C397.3 80 400 82.7 400 86z" />
    <glyph glyph-name="chevron-square-right"
      unicode="&#xF32B;"
      horiz-adv-x="448" d=" M316.5 247.5L193.7 124.7C189 120 181.4 120 176.7 124.7L154.1 147.3C149.4 152 149.4 159.6 154.1 164.3L245.8 256L154.1 347.7C149.4 352.4 149.4 360 154.1 364.7L176.7 387.3C181.4 392 189 392 193.7 387.3L316.5 264.5C321.2 259.8 321.2 252.2 316.5 247.5zM448 432V80C448 53.5 426.5 32 400 32H48C21.5 32 0 53.5 0 80V432C0 458.5 21.5 480 48 480H400C426.5 480 448 458.5 448 432zM400 86V426C400 429.3 397.3 432 394 432H54C50.7 432 48 429.3 48 426V86C48 82.7 50.7 80 54 80H394C397.3 80 400 82.7 400 86z" />
    <glyph glyph-name="chevron-square-up"
      unicode="&#xF32C;"
      horiz-adv-x="448" d=" M232.5 348.5L355.3 225.7C360 221 360 213.4 355.3 208.7L332.7 186.1C328 181.4 320.4 181.4 315.7 186.1L224 277.8L132.3 186.1C127.6 181.4 120 181.4 115.3 186.1L92.7 208.7000000000001C88 213.4 88 221.0000000000001 92.7 225.7000000000001L215.5 348.5000000000001C220.2 353.2000000000001 227.8 353.2000000000001 232.5 348.5000000000001zM448 432V80C448 53.5 426.5 32 400 32H48C21.5 32 0 53.5 0 80V432C0 458.5 21.5 480 48 480H400C426.5 480 448 458.5 448 432zM400 86V426C400 429.3 397.3 432 394 432H54C50.7 432 48 429.3 48 426V86C48 82.7 50.7 80 54 80H394C397.3 80 400 82.7 400 86z" />
    <glyph glyph-name="chevron-up"
      unicode="&#xF077;"
      horiz-adv-x="448" d=" M6.101 152.707L25.9 132.908C30.586 128.222 38.184 128.222 42.871 132.908L224 313.607L405.13 132.909C409.816 128.223 417.414 128.223 422.101 132.909L441.9 152.708C446.586 157.394 446.586 164.992 441.9 169.679L232.485 379.092C227.799 383.778 220.201 383.778 215.514 379.092L6.101 169.678C1.414 164.991 1.414 157.393 6.101 152.707z" />
    <glyph glyph-name="circle-notch"
      unicode="&#xF1CE;"
      horiz-adv-x="512" d=" M288 483.023V466.632C288 459.155 293.182 452.687 300.474 451.034C389.568 430.838 456 351.2580000000001 456 256C456 145.468 366.549 56 256 56C145.468 56 56 145.451 56 256C56 351.2440000000001 122.422 430.837 211.526 451.034C218.818 452.687 224 459.155 224 466.632V483.019C224 493.16 214.678 500.779 204.754 498.694C91.959 474.996 7.373 374.655 8.004 254.668C8.724 117.616 119.481 7.712 256.5350000000001 8.001C393.255 8.289 504 119.212 504 256C504 375.349 419.692 475.003 307.3830000000001 498.665C297.403 500.768 288 493.221 288 483.023z" />
    <glyph glyph-name="circle"
      unicode="&#xF111;"
      horiz-adv-x="512" d=" M256 504C119 504 8 393 8 256S119 8 256 8S504 119 504 256S393 504 256 504zM256 56C145.5 56 56 145.5 56 256S145.5 456 256 456S456 366.5 456 256S366.5 56 256 56z" />
    <glyph glyph-name="clipboard"
      unicode="&#xF328;"
      horiz-adv-x="384" d=" M336 448H256C256 483.29 227.29 512 192 512S128 483.29 128 448H48C21.49 448 0 426.51 0 400V48C0 21.49 21.49 0 48 0H336C362.51 0 384 21.49 384 48V400C384 426.51 362.51 448 336 448zM330 48H54A6 6 0 0 0 48 54V394A6 6 0 0 0 54 400H96V364C96 357.373 101.373 352 108 352H276C282.627 352 288 357.373 288 364V400H330A6 6 0 0 0 336 394V54A6 6 0 0 0 330 48zM192 472C205.255 472 216 461.255 216 448S205.255 424 192 424S168 434.745 168 448S178.745 472 192 472" />
    <glyph glyph-name="clock"
      unicode="&#xF017;"
      horiz-adv-x="512" d=" M256 504C119 504 8 393 8 256S119 8 256 8S504 119 504 256S393 504 256 504zM256 56C145.5 56 56 145.5 56 256S145.5 456 256 456S456 366.5 456 256S366.5 56 256 56zM317.8 160.4L232.9 222.1C229.8 224.4 228 228 228 231.8V396C228 402.6 233.4 408 240 408H272C278.6 408 284 402.6 284 396V254.3L350.8 205.7C356.2 201.8 357.3 194.3 353.4000000000001 188.9L334.6 163C330.7000000000001 157.7 323.2000000000001 156.5 317.8 160.4z" />
    <glyph glyph-name="clone"
      unicode="&#xF24D;"
      horiz-adv-x="512" d=" M464 512H144C117.49 512 96 490.51 96 464V416H48C21.49 416 0 394.51 0 368V48C0 21.49 21.49 0 48 0H368C394.51 0 416 21.49 416 48V96H464C490.51 96 512 117.49 512 144V464C512 490.51 490.51 512 464 512zM362 48H54A6 6 0 0 0 48 54V362A6 6 0 0 0 54 368H96V144C96 117.49 117.49 96 144 96H368V54A6 6 0 0 0 362 48zM458 144H150A6 6 0 0 0 144 150V458A6 6 0 0 0 150 464H458A6 6 0 0 0 464 458V150A6 6 0 0 0 458 144z" />
    </font>
</defs>
</svg>
